<?xml version="1.0" standalone="no"?>
<!DOCTYPE svg PUBLIC "-//W3C//DTD SVG 1.1//EN" "http://www.w3.org/Graphics/SVG/1.1/DTD/svg11.dtd">
<svg xmlns="http://www.w3.org/2000/svg">
<metadata>Generated by Fontastic.me</metadata>
<defs>
<font id="whizlabs30" horiz-adv-x="512">
<font-face font-family="whizlabs30" units-per-em="512" ascent="480" descent="-32"/>
<missing-glyph horiz-adv-x="512" />

<glyph glyph-name="cart" unicode="&#97;" d="M403 152l0 0c-14 0-27-5-37-15-10-10-15-23-15-37 0-14 5-28 15-37 10-10 23-16 37-16 29 0 52 24 53 53 0 29-24 52-53 52z m23-53c0-6-3-11-7-16-4-4-10-6-16-6l0 0c-6 0-12 3-16 7-4 4-7 10-7 16 1 12 11 22 23 22l0 0c6 0 12-2 16-7 5-4 7-10 7-16z m-217 53l0-1 0 1 0 0c-14 0-27-5-37-15-10-10-15-24-15-38 0-14 6-27 15-37 10-9 24-15 38-15l0 0c14 1 27 6 36 16 10 10 15 23 15 37 0 29-23 52-52 52z m0-75c-6 0-12 2-16 7-4 4-7 10-6 16 0 13 10 23 22 23l1 0c12 0 22-11 22-23 0-13-10-23-23-23l0-2z m300 313c-3 5-9 7-15 7-76 0-151-1-214-1l-167 0c0 1 0 2 0 3l-5 13c-4 13-9 27-13 41-1 7-7 12-14 12l-34 0c-12 0-22 0-33 0-4 0-8-2-11-5-3-4-4-8-3-13 1-7 8-13 16-12l26 0c9 0 16 0 26 0l0 0c2 0 3 0 4-3l11-36c21-63 41-128 63-192 0-1 0-1 0-2l0 0 3-8 0 1 5-15c0-1 4-11 13-11l20 0c57 0 112 0 164 0l83 0c11 0 15 3 18 14 6 18 11 35 16 53 14 45 28 92 43 137 2 6 1 12-2 17z m-31-24l-2-8-9-27-9-29c-10-33-20-67-30-100-1-3-1-3-4-3-40 0-81 0-121 0-41 0-82 0-123 0-2 0-3 0-4 3-13 41-26 83-40 123l-13 40c0 1 0 1 0 1z"/>
<glyph glyph-name="search" unicode="&#98;" d="M506 38l-41 41c-12 12-25 25-37 37l-23 23-4 4 3 5c21 27 35 58 42 90 7 30 7 60 1 90-19 107-112 185-221 184-60 1-117-23-159-65-39-39-63-90-67-145-4-63 18-124 61-170 43-45 103-71 165-71 50 1 99 17 139 47l5 4 4-4 23-24c11-11 23-22 34-34l44-43c4-4 9-6 15-6 6 0 11 2 15 6l1 1c8 8 8 22 0 30z m-281 67l-2 0c-48 0-93 19-127 54-51 52-67 131-38 198 29 68 95 112 169 112 48 0 93-19 127-53 35-35 54-83 54-132-2-100-83-180-183-179z"/>
<glyph glyph-name="facebook" unicode="&#99;" d="M292-11l0 239 75 0 11 93-86 0 0 59c0 27 7 45 43 45l46 0 0 83c-22 3-44 4-67 4-66 0-111-43-111-123l0-69-75 0 0-92 75 0 0-239z"/>
<glyph glyph-name="linkedin" unicode="&#100;" d="M510 0l-106 0 0 16c0 52 0 104-1 156 0 16-2 32-6 48-8 21-28 36-51 36-23 0-44-14-52-36-4-16-7-33-7-50 0-51 0-102 0-153l0-17-106 0 0 342 102 0 0-39 4-2c4 5 7 10 12 14 35 36 89 47 136 28 45-15 75-58 74-106 3-77 2-155 2-232 0-2-1-3-1-5z m-395 0l-105 0 0 343 105 0z m10 449c0-16-7-32-18-44-12-11-28-18-44-18-26 0-49 15-59 38-9 24-4 51 14 69 18 18 45 23 68 13 23-9 39-32 39-58z"/>
<glyph glyph-name="tweeter" unicode="&#101;" d="M163 22c196 0 303 176 303 329 0 5 0 10-1 15 22 17 39 37 53 60-19-9-39-16-61-18 23 15 40 38 47 64-21-14-43-23-67-28-19 22-46 35-74 36-29 1-57-11-77-31-28-30-39-71-31-111-87 6-167 50-219 121-28-53-14-118 33-154-17 0-34 5-48 14l0-1c-2-53 34-100 85-114-15-4-32-5-48-2 12-45 52-78 100-80-37-32-84-49-133-49-8 0-17 0-25 1 48-33 105-52 163-52"/>
<glyph glyph-name="dropdown-arrow" unicode="&#102;" d="M282 140c-11-10-28-10-40 0l-230 187c-11 9-15 23-10 36 4 13 16 21 30 21l461 0c13 0 25-8 30-21 4-13 0-27-10-36z"/>
<glyph glyph-name="arrow-right" unicode="&#104;" d="M316 50l-38 41 134 134-412 0 0 57 412 0-134 135 38 41 205-204z"/>
<glyph glyph-name="certifcation-base" unicode="&#105;" d="M259 76c-7-18-13-35-19-51-8-20-11-21-28-9-15 10-30 19-44 29-3 3-8 3-12 1-22-12-45-23-68-35-5-2-10-5-15 0-5 5-4 10-2 16 23 55 45 109 68 164 4 10 3 13-7 17-7 3-15 5-22 8-14 4-23 19-19 34 1 7 2 13 4 20 2 7 0 14-5 18-4 5-9 9-13 14-11 12-11 31 1 43 3 3 6 7 9 10 8 6 11 17 7 27-1 5-2 11-3 16-3 12 3 24 14 30 8 3 17 6 25 9 7 2 12 7 14 13 1 7 3 13 6 20 2 7 7 13 14 17 6 4 14 4 22 2 18-7 38-2 50 13 6 6 14 10 22 10 8 0 16-3 22-10 4-3 8-7 12-11 5-5 13-8 21-5 5 1 11 2 16 3 15 5 31-4 36-19 2-6 5-12 6-18 2-8 8-14 15-15 8-2 15-5 21-8 13-5 20-18 17-32-1-7-2-14-4-22-2-6 0-12 5-17 4-4 9-9 13-14 11-12 11-30 0-41-3-4-6-8-10-12-8-6-11-17-7-26 1-5 3-11 3-17 3-13-4-26-16-31-8-4-17-6-25-9-10-4-11-7-7-16l67-164c1-1 2-2 2-4 0-4-1-8-2-12-3-5-9-4-14-2-23 12-46 23-68 35-5 3-11 3-16-1-15-11-31-21-47-32-10-7-16-5-20 7-6 18-12 37-19 57z m-141 292c-2-6-5-12-8-18-3-5-8-10-12-14-11-13-11-15 1-27 0 0 0 0 1-1 15-12 21-33 14-52-5-18-4-20 14-25 19-3 34-18 38-36 5-20 6-21 26-15 18 5 38 0 50-14 14-15 17-15 31 0 12 14 31 19 48 14 22-6 23-5 29 17 4 16 17 30 33 33 22 6 24 5 17 30-5 17 0 35 14 46 3 3 5 7 8 10 2 2 3 4 3 7 0 3-1 6-3 7-5 5-9 10-13 15-9 9-13 23-10 35 2 6 3 12 4 18 1 3 1 6-1 9-1 2-4 4-7 5-6 1-11 3-16 5-14 3-24 14-27 27-2 5-4 10-5 16-1 3-3 6-5 7-3 2-6 2-9 1-5-1-10-1-14-3-15-5-32 0-43 12-3 4-7 7-11 10-2 2-5 3-7 3-3 0-6-1-7-3-5-4-10-8-15-13-9-9-22-13-34-9-6 1-12 2-18 3-11 2-14 1-16-10-3-23-21-42-45-46-12-2-13-6-10-18 1-8 3-16 5-26z m144-236l33-97c17 11 32 22 48 32 5 4 12 5 17 1 16-8 32-15 48-23 2-1 4-2 7-3l-53 128c-6-11-19-17-32-13-6 0-11 1-16 3-9 3-18 0-24-7-8-7-17-13-28-21z m-109 38l-53-129c4 2 6 3 9 4 15 8 30 15 45 23 6 4 14 3 19-1 16-11 31-21 47-31 1 0 1 1 2 1 6 15 10 32 17 46 8 16 8 34 1 49-2 10-8 18-17 23-9 5-19 6-28 3-16-3-31-5-42 12z m229 148c0-34-13-66-36-91-24-24-56-37-90-38-70 3-124 61-123 130 0 34 13 66 36 90 24 24 56 38 90 38 69-2 124-59 123-129z m-125-107c58 1 105 49 104 107 1 57-43 104-100 107-29 1-56-10-76-30-20-20-31-48-31-76-1-58 45-106 103-108z"/>
<glyph glyph-name="choose-arrow" unicode="&#106;" d="M408 174c30-29 58-57 86-85 12-12 12-19 1-31-14-13-27-27-41-40-12-12-19-12-31 0-28 28-56 56-85 86l-31-50c-1-3-3-5-5-7-4-4-10-7-16-9-7-1-12 5-14 12-8 24-15 47-23 70-20 59-39 118-59 177-2 8-4 16 3 23 6 6 14 4 22 2 81-27 162-54 243-81 8-2 15-6 16-16 1-8-5-13-12-17-18-11-35-22-54-34z m58-98c-3 1-6 3-9 5-28 28-55 55-83 83-5 4-7 9-7 15 1 6 5 11 10 13 5 4 11 7 16 11l28 17-192 64 63-193c10 16 18 29 27 43 9 14 19 14 30 3 28-27 55-55 82-82 3-3 5-5 7-7z m-413 217c-12 0-23 0-34 0-12 0-19 7-19 17 0 9 8 15 19 15 23 0 45 0 68 0 12 0 19-6 19-16 0-10-7-16-19-16-11 0-23 0-34 0z m17 167c5-3 10-6 14-9 17-16 33-33 49-49 3-3 5-7 6-12 0-4-1-9-5-12-3-3-7-5-11-5-5 0-9 2-12 6-17 17-35 34-52 52-3 6-4 12-2 18 2 4 8 7 13 11z m213-88c-5 3-11 6-13 10-1 6-1 11 2 16 18 19 36 38 55 56 3 2 7 4 11 4 4 0 8-2 10-5 3-3 5-7 5-11 0-3-1-7-4-10-18-19-36-37-55-55-3-2-7-4-11-5z m-159-126c5-2 10-6 14-10 4-5 3-13-2-17-18-19-36-37-54-54-3-3-7-5-11-4-5 0-9 2-12 5-5 6-5 16 2 21 17 18 34 35 51 52 4 3 8 5 12 7z m96 212c0-11 0-22 0-34 0-4-1-9-4-12-3-4-7-6-12-6-5 0-9 2-12 5-3 4-4 8-4 13 0 23 0 47 0 71 0 5 1 9 5 12 3 3 7 5 12 5 4 0 8-2 11-5 3-4 4-8 4-12 0-12 0-24 0-37z"/>
<glyph glyph-name="pagination-arrow-1" unicode="&#107;" d="M52 9c-14-1-28 4-38 14-10 10-15 24-14 38 0 130 0 260 0 390-1 13 4 27 14 36 9 10 22 15 36 14 109 0 218 0 327 0 13 0 26-5 35-14 9-9 14-22 13-35 0-19 0-38 0-58l2-1c6 6 11 12 17 18 4 5 10 8 16 8 7 0 13-3 17-8 9-9 18-19 27-28 5-4 8-10 8-16 0-6-3-12-8-16-24-25-49-50-74-75-3-3-4-7-4-11-1-65-1-129-1-194 1-8 0-17-1-25-5-23-26-39-50-37l-322 0z m-2 469c-7 1-15-2-20-7-5-6-8-13-7-21 0-130 0-260 0-391-1-7 2-14 7-19 5-6 12-8 20-8l326 0c7 0 14 2 19 7 5 6 8 13 7 20 0 55 0 111 0 166l0 23c-3-4-5-5-7-7-42-42-83-84-125-126-3-5-8-8-13-9-16-2-32-3-48-3-3 1-6 2-7 4-2 2-3 4-3 7 0 12 0 25 1 37-1 7 2 15 7 20 63 64 127 129 191 193 2 3 4 6 4 10 0 26 0 51 0 77 1 7-2 15-7 20-5 5-13 8-20 7l-325 0z m358-137c-58-59-116-119-175-177-12-12-9-24-10-37 5 0 11 1 16 0 7 0 15 3 19 9 51 52 102 103 153 154l28 28-26 27c-1-1-3-3-5-4z m24 23l24-25 28 28-24 25z m-308-261c-11 0-23 0-34 0-4 0-9 2-11 5-2 4-2 9 0 12 2 4 6 6 10 6 24 0 47 0 71 0 4 0 8-2 10-6 2-4 2-8-1-12-2-3-6-5-10-5l-14 0z m-34 94c-8 0-13 4-13 11 0 4 2 7 4 9 3 2 6 3 10 3 29 0 59 0 89 0 4 0 7-1 9-3 3-2 5-5 5-9 0-7-6-11-14-11l-71 0z m106 93l-58 0c-15 0-30 0-45 0-4 0-8 1-11 3-3 3-4 7-4 11 1 4 5 7 9 9 1 1 3 1 5 1 0 0 1 0 2 0l171 0c2 0 3 0 4 0 7 0 12-5 13-12 0-3-2-6-4-8-2-2-6-4-9-3-12 0-24 0-37 0z m134 94l-235 0c-3 0-5 0-8 0-5 1-9 5-10 11 0 5 3 10 9 12 2 0 5 0 7 0l239 0c2 0 5 0 7 0 5-1 9-6 9-12 0-6-5-10-11-11-1 0-2 0-4 0z"/>
<glyph glyph-name="pagination-arrow" unicode="&#108;" d="M323 256l-43 41c-54 53-109 105-163 157-9 8-13 19-11 31 2 11 10 20 21 24 13 6 28 3 38-7 39-38 79-77 119-115l111-106c7-6 12-16 12-25 0-10-5-19-12-25l-182-175c-16-15-33-31-49-46-13-13-33-13-47-2-13 11-16 30-5 44 6 7 13 13 19 19 63 61 126 121 189 181 1 1 2 3 3 4z"/>
<glyph glyph-name="cross-bold" unicode="&#109;" d="M498 78c8-9 12-21 11-33-1-12-6-23-15-31-17-15-42-15-59 0l-179 177-177-178c-18-17-47-17-65 0-8 9-13 20-13 32 0 12 5 23 13 32l177 178-175 179c-18 18-18 46 0 64 17 18 46 18 64 0l177-178 177 178c18 18 47 18 65 0 18-17 18-46 0-63l-178-178z"/>
<glyph glyph-name="notification" unicode="&#110;" d="M484 139c-15 13-26 30-32 49-17 46-26 95-27 144 0 23-3 46-10 68-13 34-35 62-64 82-28 20-62 30-96 30-24 0-48-5-70-15-27-12-50-30-68-53-17-24-28-52-31-81-2-14-2-29-3-43 0-11-1-22-2-33-1-47-16-93-44-131-14-15-16-37-7-54 3-7 4-8 10-8l0 0c42 0 84 0 115 0l197 0c32 0 74 0 117 0l0 0c6 0 8 1 9 7 2 10 5 19 9 28 2 3 1 7-3 10z m-61-3l-345 0 3 7c1 1 1 3 2 4 1 2 2 5 3 7 22 41 34 85 37 131 1 12 2 24 2 36 1 10 1 20 2 31 2 28 14 55 33 76 19 21 45 35 74 39 7 2 14 2 21 2 56 1 106-35 122-88 5-15 7-29 7-44-1-49 7-97 22-144 4-11 9-22 14-34 3-5 5-11 8-16l3-7z m-168-99c-20 0-39 5-56 15l-11-11-18-17c25-19 55-29 86-27 30-2 59 7 82 26l-7 8-21 21c-17-10-36-15-55-15z"/>
<glyph glyph-name="dropdown-arrow-sharp" unicode="&#111;" d="M256 102l-256 308 512 0z"/>
<glyph glyph-name="hamburger" unicode="&#112;" d="M23 455l466 0c13 0 23-10 23-23 0-12-10-22-23-22l-466 0c-13 0-23 10-23 22 0 13 10 23 23 23z m0-171l466 0c13 0 23-10 23-22 0-13-10-23-23-23l-466 0c-13 0-23 10-23 23 0 12 10 22 23 22z m0-170l352 0c13 0 23-10 23-23 0-13-10-23-23-23l-352 0c-13 0-23 10-23 23 0 13 10 23 23 23z"/>
<glyph glyph-name="submenu-arrow" unicode="&#113;" d="M141-13l-34 36 224 227-222 225 37 37 259-263c-3-3-6-7-9-10-82-82-165-163-247-245-2-3-4-5-5-7z"/>
<glyph glyph-name="project-mngment" unicode="&#114;" d="M349 457c34 0 65 0 97 0 18 0 24-6 25-23 0-3 0-6 0-9 0-133 0-266 0-399 0-4 0-8 0-12 0-5-2-10-6-14-4-3-9-5-14-5-3 0-5 0-8 0l-383 0c-23 0-28 6-28 28 0 135 0 270 0 405 0 23 6 29 29 29 12 0 24 0 36 0 6 0 11-1 15-5 4-3 7-8 7-14 0-5-2-11-7-14-4-4-9-6-15-5-8-1-16 0-24 0l0-384 359 0 0 383c-4 0-7 0-11 0-28 0-55 0-83 0-20 0-26 7-26 27 0 9 0 18 0 28l-119 0 0-60 37 0c20 0 40 0 60 0 5 0 10-2 14-6 3-3 5-8 5-14 0-5-2-9-5-13-4-3-9-5-14-5-39 0-78 0-117 0-5 0-11 2-14 5-4 4-6 9-6 14 0 33 0 66 0 99 0 5 2 10 6 14 4 4 10 6 15 5 51 0 103 0 155 0 5 1 11-1 15-6 4-4 6-10 5-15 0-11 0-22 0-34z m-124-261l79 80c2 3 5 6 8 8 8 7 20 7 27-1 8-7 8-19 0-27-7-7-14-14-22-21-25-26-51-51-76-77-4-6-11-9-18-9-7 0-14 3-18 9-13 13-26 27-39 40-11 11-12 22-3 31 9 9 21 7 31-4 10-9 19-18 31-29z"/>
<glyph glyph-name="dot" unicode="&#115;" d="M512 256c0-141-115-256-256-256-141 0-256 115-256 256 0 141 115 256 256 256 141 0 256-115 256-256z"/>
<glyph glyph-name="agile" unicode="&#116;" d="M222 417c7-6 15-12 22-18 3-3 6-7 6-12 0-4-1-9-5-12-3-4-8-6-13-6-5 0-9 3-12 6-18 17-35 35-52 52-4 3-6 8-6 13 0 5 2 9 6 12 17 19 35 37 54 55 2 3 6 5 11 5 4 0 8-2 11-5 4-3 6-7 6-12 0-4-2-9-6-12-8-8-16-17-25-26 90-15 150-62 175-149 16-57 6-118-28-167-34-49-88-79-148-84-58-4-116-1-175-2-11 0-20 4-20 16 0 12 8 17 21 17 49 0 99 0 149 0 92-5 169 65 175 156 7 86-52 162-136 177-3 0-5 0-7 0z m-96-313c-20 0-35-1-50 0-5 1-10 3-14 7-48 46-70 112-59 177 10 65 52 121 111 149 10 5 20 8 26-4 7-11 1-19-11-26-124-65-130-222-10-297 1-1 2-2 7-6z m379-19c-17 17-34 34-51 51-3 4-8 7-13 7-5 0-9-2-13-6-3-3-5-8-4-12 0-5 3-9 6-12 8-7 16-14 24-21l-3-4c-11 0-22-1-33-1l-1 0c-10 0-19-1-29 0l-42 0c-20-8-38-19-54-32l164 0c-10-8-18-16-25-26-4-7-5-15-2-23 6-10 17-8 25 0 17 17 34 35 51 52 5 3 7 8 7 13 0 5-2 10-7 14z"/>
<glyph glyph-name="bigdata" unicode="&#117;" d="M69 62c18-18 40-32 64-40 38-14 78-22 118-21 20 0 40 1 59 4 41 4 81 19 114 43 26 17 40 46 39 77 0 74 0 149 0 222 0 15 0 31 0 46 0 22-8 43-24 58-22 22-49 37-78 45-34 11-70 16-105 16-21 0-42-2-62-5-38-5-74-18-106-39-28-18-45-50-43-83 1-30 1-61 1-90 0-13-1-26-1-39 0-13 0-27 0-40 0-32 0-65 0-97 0-22 9-42 24-57z m351 50c-3-14-12-26-24-33-28-18-60-29-93-32-17-3-34-4-52-4-35 0-71 6-104 19-15 7-30 16-43 26l-3 2c-9 8-14 20-13 32 0 13 0 27 0 40 0 6 0 11 0 17l0 4 3-2c51-26 107-40 163-40 57 0 112 14 163 40l3 1 0-3c0-7 0-13 0-20 0-15 1-31 0-47z m-318 311c14 12 31 21 48 29 33 12 69 18 105 18 41 0 81-8 119-25 12-6 23-13 33-22 8-7 13-17 14-27-1-10-6-19-14-25-15-12-31-22-50-29-33-12-68-18-104-18-41 0-81 9-118 25-13 5-24 13-34 22-8 7-13 17-13 27 1 10 6 19 14 25z m-14-121c0 6 0 12 0 17l0 4 3-2c51-25 107-39 164-40 56 1 111 14 161 40l3 1 0-3c0-7 0-13 0-20 1-16 1-33-1-50-4-12-12-23-24-29-25-18-55-29-86-32-18-3-37-4-56-4-36 0-72 6-106 19-19 6-35 16-48 31-5 6-9 14-10 23-1 15 0 30 0 45z"/>
<glyph glyph-name="block-chain" unicode="&#118;" d="M15 105c85-38 159-72 227-103 4-1 8-2 12-2 5 0 9 1 13 3 78 35 154 69 225 101 12 6 17 12 17 22 0 10-5 16-17 22-21 9-41 18-62 28l-26 12-9 4 9 4 27 12 64 29c10 3 16 14 13 24-2 8-8 14-16 17-20 9-41 18-62 28l-26 11-8 4 8 4 5 2c2 1 5 3 7 4l13 6c21 9 42 18 63 27 11 5 17 11 17 21 0 10-5 17-18 23-70 31-146 66-222 101-5 2-10 3-15 3-5 0-10-1-14-3-75-35-152-69-224-102-11-5-16-12-16-22 0-9 5-16 17-21 21-9 43-19 64-28l13-6c2-1 4-2 6-3l4-2 9-4-9-4-26-12-63-27c-9-3-15-12-15-22 0-9 6-18 16-20 20-9 41-18 62-28l27-12 9-4-9-4-27-12c-21-10-42-19-63-29-9-3-15-11-15-21 0-10 6-18 15-21z m68 277l-9 4 9 4 29 13 62 28 21 9c16 8 33 16 50 23 3 1 7 2 10 2 2 0 4 0 6-1 47-21 95-43 141-64l20-8c1-1 2-2 2-3 1 0 1 0 1-1l4-4-5-3-3-1c-1-1-3-2-5-3l-43-19c-35-16-72-33-107-49-4-2-8-3-12-3-3 0-7 1-11 3-40 18-79 36-121 55z m5-133c0 0-1 1-2 2l-2 1-7 5 7 3 19 8c20 10 38 18 57 26 2 1 3 1 5 1 4 0 7-1 11-2 22-10 44-20 65-31 4-2 9-3 13-3 5 0 10 2 14 4 23 11 44 21 64 29 4 2 7 2 11 2 3 0 6 0 9-1 18-8 35-16 53-24l20-9 8-4-8-4-4-2c-2-2-4-3-6-3l-24-11c-41-19-84-38-126-57-4-2-8-2-11-2-3 0-5 0-7 1-44 19-89 40-132 59z m-4-120l18 9c20 9 39 17 59 26 1 0 3 1 4 1 4-1 7-1 10-3 25-11 47-21 67-30 4-2 8-3 13-3 4 0 8 1 12 3 20 9 42 19 66 30 3 2 7 2 11 3 1 0 3-1 5-1 19-9 38-17 57-26l19-9 9-4-9-4-4-2c-2-1-5-2-7-3l-27-12c-40-19-81-37-122-55-4-2-8-3-12-3-2 0-5 1-7 2-43 19-87 39-129 58l-26 12c-2 0-3 1-5 2l-2 2-8 4z"/>
<glyph glyph-name="blue-prism" unicode="&#119;" d="M255 35c-76 0-152 0-228 0-10 0-19 5-24 13-4 8-4 19 2 26 76 132 152 263 227 395 5 9 14 15 23 15 10 0 18-6 23-15 76-131 152-263 228-395 5-8 6-18 1-26-5-8-14-13-23-13z m0 375c-63-109-125-217-188-325l376 0z"/>
<glyph glyph-name="business-analytics" unicode="&#120;" d="M242 492c5 16 11 20 29 20 115-3 212-87 231-200 2-14 3-28 4-42 2-9-4-18-13-20-8-3-9-7-9-13-1-51-20-99-51-138-41-53-101-86-167-92-119-12-229 64-258 180-17 63-7 130 26 185 34 56 88 96 151 111 18 4 38 6 57 9z m1-47c-82 1-155-49-185-124-31-79-9-168 54-223 67-58 164-64 238-17 57 37 90 100 89 167l-170 0c-19 0-26 7-26 26 0 53 0 106 0 159z m44 21l0-173 173 0c-10 91-82 163-173 173z"/>
<glyph glyph-name="java" unicode="&#121;" d="M190 19c6-1 13-1 19-1l10 0c4 0 8 0 12 0 4 0 7 0 11 0 5 0 10 0 16 1 3 0 6 0 9 0 3 0 7 0 11 0l3 1c2 0 4 0 6 0l9 0c6 1 13 1 20 2 8 1 14 1 19 2 9 1 17 2 25 4 13 2 25 5 37 10 7 2 14 6 21 10 3 2 6 5 9 8 2 2 3 6 2 9-2 5-5 8-9 11l-7 3-1-7c0-2 0-4 1-5 0-2 0-2-1-2 0-1-1-2-2-2-5-3-10-5-15-6-14-3-27-6-41-7-10-1-20-2-33-3-9-1-18-2-27-2l-1 0c-6 0-13-1-19-1-12 0-21-1-31-1-5 0-10 0-15 0l-15 0c-9 0-18 0-28 1-3 0-7 1-10 1-3 0-6 1-9 1-5 0-11 1-16 1l-2 1c-8 1-15 2-21 3-6 1-11 2-16 4-1 0-2 1-3 2 1 1 2 2 3 2 3 2 7 4 11 5 7 2 14 4 21 5l4 1 2 0 4 1 1 4c0 2-1 3-2 4-1 1-2 2-4 2l-1 0c-1 0-3 0-4 0l0-2 0 2c-6 0-11 0-17-1-11-2-22-4-32-7-8-3-15-6-21-11-4-2-6-6-8-9l-1-1 0-9 2-1c2-3 5-6 8-8 5-2 10-4 16-5 13-3 27-6 41-7 9-1 19-1 28-2 9-1 19-1 31-1z m257 31l-1 0c-1 0-2 0-3-1l0 0c-1 0-2-1-3-1-8-6-17-11-26-15-13-5-27-9-42-12-10-2-21-4-34-5-10-1-18-2-26-2-9-1-18-1-28-2-7 0-15 0-23 0l-6 0c-2 0-3 0-5 0l-2 0-9 0c-4 0-8 0-11 0-11 1-22 1-32 2l-3 0c-4 0-8 0-14 1-5 0-11 1-16 1l-3 0-7 1-5 1c-1 0-2 0-3 0l-1 0c0 0-1 0-2 0-1 0-1 0-2 0l-8-2 5-7c1-1 3-2 5-3l0 0c9-3 19-5 28-7 15-2 29-4 44-6 9 0 17-1 24-1l1 0 46 0 0 0c10 0 21 1 33 2 9 1 17 2 25 3 11 1 21 2 32 4 10 2 20 4 29 8 11 3 21 8 31 14 5 3 9 8 13 13 2 2 3 5 4 8l1 6z m-256 252c6-10 12-20 20-29 10-13 22-26 33-37 2-2 3-4 5-6l3-2 9-9 0 13c0 2-1 4-2 5l0 1-2 2c-1 1-2 3-3 4-7 10-13 21-19 32-5 8-8 17-11 26-2 8-1 16 2 24 3 5 6 10 10 15 7 8 14 16 22 24 10 10 21 21 31 31l7 6c5 4 9 9 14 15 10 14 16 31 17 49 0 10-1 21-4 31-1 4-3 8-5 11-1 2-2 3-4 4-1 0-3 0-5-1-3-1-4-5-3-8 1-6 2-13 1-20-1-15-7-30-16-43-6-7-13-14-20-20l-5-4c-14-11-27-22-40-34-10-8-18-17-26-26-5-6-9-13-12-20-3-7-3-14-2-21 1-4 3-9 5-13z m90 64c-9-7-16-16-21-27-5-9-7-19-5-29 1-12 5-23 12-33 2-3 5-7 8-11l3-5c2-3 4-6 6-9 3-6 3-14 0-20-3-5-6-10-10-15l0 0c-1-1-2-3-2-4l-1-5 5-1c1 0 1 0 2 0 1 0 3 0 4 1 7 5 14 10 21 16 5 5 10 10 13 17 6 9 7 19 4 29-2 6-4 11-7 16-2 5-5 9-8 14l-3 4c-2 3-5 7-6 11-3 6-3 12 0 18 3 6 7 13 13 18 7 8 16 15 25 22 12 8 24 16 37 24l0 0c2 1 3 2 4 3l3 6-6 3c-1 0-2 0-3 0-1 0-2 0-3-1l0 0c-16-4-32-10-47-18-14-6-26-14-38-24z m-89-258c1 2 1 4 1 6l-2 4-4 0c-1 0-1 0-2 0-7-2-13-5-19-10-5-4-6-11-4-17 1-2 2-4 4-5 4-4 8-6 13-8 8-3 17-6 26-7 12-2 24-3 36-4 4 0 7 0 10 0 7 0 14 1 20 1 9 1 18 2 26 4 13 3 26 6 37 10l0 0c2 0 5 1 7 2l5 3-3 5c-1 1-3 2-4 3l-2 1c-2 0-3 1-5 2-5 2-10 5-15 9-4 2-8 2-12 1-2 0-3-1-5-1l-1 0c-7-1-15-2-23-3-10-1-20-1-30-2-3 0-6 0-8 0-11 0-22 1-32 1-4 1-8 1-11 2-1 1-2 1-3 2-1 0-1 0-1 0 0 1 0 1 0 1z m164 39l-9 3c-4 1-8 3-12 6l-2 2-2 1c-2 2-4 3-7 3-1 0-1 0-2-1-5 0-10-1-16-2-8-1-15-2-23-3-6-1-12-1-17-1l-1 0c-9-1-19-2-30-2-4 0-8 0-12 0-6 0-12 0-18 0-7 1-14 2-20 3-3 0-5 2-7 3 0 0-1 0-1 1 0 0 0 0 1 0 0 1 0 1 0 2l2 2 1 1 9 10-14-1c-8-1-16-5-23-10-3-3-5-6-6-10-2-6 0-12 4-16 2-1 3-2 5-2 5-3 11-5 16-6 15-3 30-5 45-6 8 0 16-1 22-1 4 0 9 0 14 0 6 0 11 0 16 1 8 0 15 1 21 2 12 1 23 3 34 6l0 0c7 2 14 3 21 6l0 0c2 0 3 1 4 2z m-241 42c7-3 15-5 23-6 11-1 22-2 34-3 10-1 21-1 32-2l1 0c1 0 2 0 3 0 3 0 6 0 9 0 3 0 5 0 9 0 9 1 20 1 30 2l3 0c5 0 10 1 14 1 8 1 16 2 23 3 7 1 15 2 23 3 6 0 12 1 18 2l5 1c3 0 5 1 7 2l11 7 6 4 0 0c2 0 3 2 4 3l4 7-8 1c-1 0-1 0-2 0-1 0-2 0-3 0l-3-1-6-1-2 0c-6-1-13-2-19-3-5 0-10-1-15-1l-1 0c-4-1-8-1-11-2l-2 0-4 0c-4-1-8-1-12-1-3-1-6-1-9-1-4 0-7-1-10-1-8-1-16-1-24-1-9-1-15-1-22-1-12 0-23 1-33 1-10 1-18 1-25 2-3 1-6 1-8 2 1 1 2 2 4 3 4 2 9 4 14 6 6 2 13 4 19 6l2 0 0 0c2 0 4 1 5 3l7 9-14 0c-1 0-2 0-2 0-7-1-14-2-19-3-14-2-27-6-40-11-6-2-12-5-18-9-3-1-5-4-6-6-3-3-2-8 1-11 2-2 4-3 7-4z m260 36l0-6 7 1 1 0c2 1 4 1 6 1 1 0 2 0 4 0 1 0 2 0 3 0 4 0 7-1 11-2 9-3 15-13 14-23-1-6-3-11-6-16-6-9-13-16-22-23-7-6-15-12-24-17-1 0-1-1-2-1l-2-1-12-8 14-2c1 0 2 0 2 0 2 0 3 0 5 1l0 0c14 4 27 9 40 17 11 6 21 14 28 24 6 7 9 15 10 23 1 8-1 16-6 23-5 9-14 16-24 19-6 2-11 4-17 3-6 0-11 0-16-2-4-1-7-2-11-5-2-1-3-3-3-6z"/>
<glyph glyph-name="linux" unicode="&#65;" d="M51 56c1 9 3 19 3 28 0 9-1 19-1 29 0 10 3 14 13 17 6 1 12 2 18 4 8 2 14 7 19 14 3 4 5 8 8 13 2 2 4 4 6 7 3 3 7 4 11 4 4 0 8-1 10-5 7-7 14-15 19-23 20-29 40-58 59-87 5-10 3-22-4-29-8-9-19-16-30-19l-6 0c-3 1-5 2-7 3-29 10-59 18-89 23-11 1-22 6-29 15z m247 332c10 10 13 26 6 39-3 9-11 15-21 15-9 0-18-5-21-14-3-8-4-15-5-22l-18 0c-1 5-1 11-2 16-1 5-3 9-5 13-3 4-7 7-12 7-6 0-10-3-13-7-8-14-8-31 0-46 1-1 2-2 3-3l-6-5c-3-2-5-6-6-10-1-4 0-8 3-11 8-10 3-22 4-33 0-1-1-2-1-2-11-11-18-24-22-38-2-8-4-15-7-22-1-4-3-8-5-11-10-16-17-35-20-54-1-11-1-23-1-34 0-2 2-4 4-5 15-13 31-26 47-39 5-5 8-9 11-15 2-3 3-7 1-11-2-3-5-5-9-6-3 0-6 1-8 4-12 19-24 37-36 55-6 8-12 15-18 22-3 4-8 6-12 7-5 0-10-3-13-7l-2-2c-3 6-4 13-2 19 1 3 2 6 3 8 8 17 16 34 23 51 9 23 22 44 38 63 5 6 10 13 15 20 2 3 2 7 2 10 0 36 0 73 0 109 0 24 14 46 36 56 21 9 44 10 65 1 20-9 36-26 44-47 5-15 8-32 6-48-1-22 4-44 16-63 17-27 34-53 51-80 14-22 23-46 27-72 1-11-1-22-4-32-1-1-2-3-3-3-5-4-11-8-16-11-5-4-9-8-14-11-5-3-11-5-16-6-7-1-14 3-16 10-1 7-3 13-7 19-1 1 0 3 0 4 1 25-1 50-6 74-4 12-9 23-14 34-12 27-23 54-34 81-1 2-1 3 0 4 1 3 2 5 3 7 4 11 2 15-8 20-2 0-3 1-5 2z m32-336c2 24 4 43 6 62 1 12 1 24 1 35 0 8 5 12 13 12 9 1 12-2 13-10 0-2 1-4 1-5 0-5 2-10 6-13 4-3 9-5 14-4 9 0 18 4 25 11 3 3 6 7 9 10 2 1 3 2 5 3 2 2 6 2 8 1 3-2 4-5 4-8 0-4 0-9 0-13 0-7 3-13 8-18 5-4 10-7 15-11 2-2 5-4 7-6 5-3 7-8 7-13 0-5-3-10-8-12-7-5-15-9-22-14-16-10-30-22-42-35-9-9-20-14-32-14-4 0-8 0-12 0-11-1-21 7-22 17-2 9-3 17-4 25z m-105 342c2 1 3 2 5 3 9 8 22 9 33 4 4-2 8-4 11-5-1 5-2 10-3 15 0 6 3 11 8 12 4 1 7 1 11-1 5-3 8-10 6-16-1-6-5-11-10-13-1 0-2 0-4-1 8-3 14-6 20-9 6-3 7-5 6-12 0-6-4-12-10-15-12-7-23-15-36-21-11-6-25-5-35 4-7 6-14 12-21 19-3 3-5 8-4 12 0 5 3 9 6 11l16 13z m-16-32c10-9 24-12 37-10 17 4 33 12 46 23 2 1 3 2 4 3l-1 1c-2 0-3-1-5-2-7-4-14-9-22-13-11-8-26-11-40-8-6 1-12 4-19 6z m83 52c-2 2-5 4-7 6-1 0-2-1-2-2 2-3 4-5 6-8z m-71-384c6 9 5 22-3 30 40-7 80 4 110 31l-3-60c-35 6-70 6-104-1z m4 364l-1 0c-3-1-7-1-10 1-2 2-4 5-4 9-2 5-1 11 3 15 1 3 4 4 7 4 2 0 5-1 7-4 5-8 4-18-2-25z m2 14c-2 3-4 7-6 10-1 1-3 1-4 0-1 0-1-2 0-3 1-3 2-6 4-9 1-1 2-2 3-2 1 0 2 2 3 4z"/>
<glyph glyph-name="lock" unicode="&#66;" d="M113 330c0 19 0 38 0 57 1 64 51 117 115 123 98 14 158-42 168-102 2-10 2-19 2-28 0-16 0-33 0-50 27 0 50-17 59-42 1-6 2-11 2-17 0-55 0-111 0-166-1-30-15-57-36-77-22-19-51-30-80-28-59 0-117 0-176 0-60-3-112 43-115 104-1 54 1 108-1 162-1 17 5 33 17 45 12 12 28 19 45 19z m143-38l-134 0c-23 0-29-5-29-26 0-53 0-106 0-158 0-20 8-39 23-53 15-13 35-20 55-18 56 0 113 0 170 0 20-2 39 5 53 18 15 13 24 32 24 51 0 54 0 108 0 162 0 18-7 24-28 24-45 0-89 0-134 0z m101 37c0 21 0 40 0 59-1 43-33 79-76 85-53 9-100-10-119-50-15-30-6-62-8-94z m-122-242c0 5-1 11 0 16 2 11-2 22-11 30-7 7-10 18-10 28 1 11 5 20 13 27 16 15 41 15 57 0 8-7 12-17 12-28 1-10-3-21-11-28-7-7-11-17-9-27 0-16 0-31 0-47 0-6-2-11-6-16-4-4-10-6-15-6-6 0-11 2-15 7-4 4-6 9-5 15-1 9 0 19 0 29z"/>
<glyph glyph-name="networking" unicode="&#67;" d="M506 252c0 29-6 58-17 85-7 17-16 32-26 46 6 13 9 26 9 40 0 49-39 89-88 89-31 0-59-16-75-41-8 0-16 1-23 1-30 0-59-6-86-18-26-11-50-27-70-47-19-19-35-42-46-67-47-3-84-42-84-89 0-47 37-86 84-88 11-25 27-48 46-67 20-20 44-36 70-47 27-12 56-18 86-18 8 0 15 1 23 2 16-26 44-41 75-41 49 0 88 40 88 89 0 14-3 27-9 40 10 14 19 29 26 45 11 27 17 56 17 86z m-74 171c0-26-21-48-48-48-27 0-49 22-49 48 0 1 0 2 0 3 2 26 23 46 49 46 26 0 48-22 48-49z m-392-172c0 27 22 49 49 49 26 0 48-22 48-49 0-27-22-48-48-48-13 0-25 5-35 14-9 9-14 21-14 34z m344-218c-27 0-49 21-49 48 0 27 22 48 49 48 26 0 48-21 48-48 0-13-5-25-14-34-9-9-22-15-34-15z m52 119c-15 12-33 18-52 17-49 0-89-39-89-88 0-3 0-6 1-9-4 0-7 0-10 0-68 0-130 38-161 98 32 15 52 46 52 81 1 35-20 67-52 81 31 61 93 99 161 99 3 0 6 0 9 0 0-2 0-5 0-8 0-49 40-88 89-88 18 0 37 5 52 16 20-29 30-64 30-99 0-36-10-70-30-100z"/>
<glyph glyph-name="cloud" unicode="&#68;" d="M193 374c22 35 59 57 100 61 66 5 126-37 143-100 2-7 3-14 4-20 0-3 2-6 5-7 34-14 60-44 69-80 7-32 1-66-17-94-19-27-48-45-81-50-6-1-12-1-19-1-95 0-191-1-287 0-49 0-92 32-106 78-10 34-1 71 22 98 11 14 26 24 43 30 3 1 4 4 4 7 3 18 10 36 23 50 20 25 53 37 84 31 5-1 9-2 13-3z m67-256l17 0c40 0 81-1 122 0 28-1 54 13 69 36 16 23 18 53 7 78-9 23-29 41-53 47-9 1-16 10-15 19-1 7-2 14-3 21-10 51-58 86-110 80-32-3-61-22-76-50-8-14-14-17-29-11-11 6-24 7-37 4-28-8-47-34-46-63 0-12-4-18-16-20-19-5-36-17-45-35-10-17-12-37-6-56 6-19 20-34 38-42 14-6 29-9 45-9 46 0 92 1 138 1z"/>
<glyph glyph-name="devops" unicode="&#69;" d="M225 314l-31-31c-3 3-6 7-10 10-8 9-17 17-27 24-26 16-59 14-83-4-23-17-35-45-30-73 5-28 25-51 52-60 27-8 57-1 77 20 31 32 63 63 94 94 15 16 30 31 46 46 23 22 54 33 86 31 46-1 87-30 103-73 15-34 12-73-6-105-19-33-52-54-89-58-35-5-71 7-96 32-7 7-14 14-22 21 0 1-1 2-2 3l30 30c4-4 9-8 13-12 9-11 20-19 33-26 22-9 47-8 67 4 21 12 35 32 38 56 5 39-21 76-60 83-25 6-51-2-69-21-39-39-78-78-117-117-11-12-24-23-36-33-52-36-123-25-161 25-39 50-32 121 16 162 47 41 119 38 163-7 7-7 14-14 21-21z"/>
<glyph glyph-name="true-tick" unicode="&#70;" d="M505 366l-309-284c0 0-5-5-5-5-5 0-5 0-5 5l-49 55c0 0 0 0 0 5l-130 129c0 5 0 10 5 15l55 50c0 5 5 0 10 0l119-130 244 224c5 5 10 5 15 0l50-55c0 0 0-5 0-9z"/>
<glyph glyph-name="bicker" unicode="&#71;" d="M499 19l-100 212-52 112 0 150c0 10-9 19-19 19l-154 0c-11 0-20-9-20-19l0-150-52-112-100-212c-3-6-3-13 1-18 3-6 10-9 16-9l463 0c6 0 13 3 16 9 4 5 4 12 1 18z m-308 311c1 3 2 6 2 9l0 135 115 0 0-135c0-3 1-6 2-9l42-88-203 0z m-141-300l81 174 239 0 81-174z"/>
<glyph glyph-name="thumb" unicode="&#72;" d="M497 239c13 15 17 36 8 55-8 18-26 30-46 30l-99 0c8 28 13 57 14 86l0 17c0 38-31 68-68 68l-17 0c-8 0-15-5-17-13l-9-37c-13-52-54-109-97-119-7 19-26 32-47 32l-102 0c-9 0-17-8-17-17l0-306c0-10 8-17 17-17l102 0c20 0 38 11 46 29l58-20c20-6 39-9 60-9l142 0c17 0 33 8 42 22 10 14 12 32 5 48 17 4 31 17 36 34 5 17 1 36-11 49 17 19 17 48 0 68z m-361-170c0-9-8-17-17-17l-85 0 0 272 85 0c10 0 17-8 17-17z m289 153l34 0c9 0 17-8 17-17 0-10-8-17-17-17l-34 0c-9 0-17-8-17-17 0-10 8-17 17-17l34 0c9 0 17-8 17-17 0-10-8-18-17-18l-34 0c-9 0-17-7-17-17 0-9 8-17 17-17 9 0 17-7 17-17 0-9-8-17-17-17l-142 0c-17 0-33 3-49 8l-64 21 0 211c30 8 57 25 76 50 24 28 41 60 50 96l6 24 4 0c19 0 34-15 34-34l0-17c-1-30-6-59-16-87l-35 0c-9 0-17-7-17-17 0-9 8-17 17-17l170 0c9 0 17-7 17-17 0-9-8-17-17-17l-34 0c-10 0-17-7-17-17 0-9 7-17 17-17z"/>
<glyph glyph-name="note2" unicode="&#74;" d="M445 480c-12 12-28 18-46 18l-289 0c-34 0-62-28-62-65l0-357c0-34 28-65 62-65l292 0c15 0 31 6 43 18 13 13 19 25 19 44l0 360c0 19-6 34-19 47z m-267-16l153 0 0-47c0-3-4-6-7-6l-136 0c-3 0-7 3-7 6l0 47z m246-410c-7-6-13-9-19-9l-295 0c-15 0-31 12-31 31l0 357c0 15 12 31 31 31l34 0 0-50c0-21 19-40 41-40l136 0c10 0 22 3 28 12 6 7 13 19 13 28l0 50 34 0c15 0 31-12 31-31l0-360c3-6 0-13-3-19z m-274 214l90 0c10 0 16 7 16 16 0 9-6 15-16 15l-90 0c-9 4-15-3-15-12 0-9 6-19 15-19z m212-43l-212 0c-9 0-15-6-15-16 0-9 6-15 15-15l208 0c10 0 16 6 16 15 3 10-3 16-12 16z m0-75l-212 0c-9 0-15-6-15-15 0-9 6-16 15-16l208 0c10 0 16 7 16 16 3 9-3 15-12 15z"/>
<glyph glyph-name="heart" unicode="&#75;" d="M256 28c-7 0-14 3-20 7-21 19-41 36-58 51-46 36-88 76-127 119-32 34-50 78-51 125-1 40 14 79 41 109 26 29 63 45 102 45 29 0 58-10 80-28 13-10 24-21 33-34 9 13 20 24 33 34 22 18 51 28 80 28 39 0 76-16 102-45 27-30 42-69 41-109-1-47-19-91-51-125-39-43-81-83-127-119-18-15-37-32-58-51-6-4-13-7-20-7z"/>
<glyph glyph-name="equalizer" unicode="&#76;" d="M494 274l-295 0c-10 39-50 63-89 53-26-7-46-27-53-53l-39 0c-10 0-18-8-18-18 0-10 8-18 18-18l39 0c10-39 50-63 89-53 26 7 46 27 53 53l295 0c10 0 18 8 18 18 0 10-8 18-18 18z m-366-55c-20 0-37 17-37 37 0 20 17 37 37 37 20 0 37-17 37-37 0-20-17-37-37-37z m366 238l-58 0c-10 39-49 63-88 53-26-7-46-27-53-53l-277 0c-10 0-18-8-18-18 0-10 8-18 18-18l277 0c10-39 50-63 89-53 26 7 46 27 52 53l58 0c10 0 18 8 18 18 0 10-8 18-18 18z m-128-55c-20 0-37 17-37 37 0 20 17 36 37 36 20 0 36-16 36-36 0-20-16-37-36-37z m128-311l-94 0c-10 39-50 63-89 53-26-7-46-27-52-53l-241 0c-10 0-18-8-18-18 0-10 8-18 18-18l241 0c10-39 49-63 88-53 26 7 46 27 53 53l94 0c10 0 18 8 18 18 0 10-8 18-18 18z m-165-54c-20 0-36 16-36 36 0 20 16 37 36 37 20 0 37-17 37-37 0-20-17-36-37-36z"/>
<glyph glyph-name="graduation-cap" unicode="&#77;" d="M471 186l0 107 42 16-262 107-252-107 111-47 0-89 139-80 144 80 0 87 51 20 0-96c-13-6-22-18-22-33 0-20 16-34 34-34 20 0 35 14 35 34 2 17-7 29-20 35z m-104 5l-116-63-112 63 0 62 114-47 114 47z m-114 42l-182 76 182 76 189-76z m216-80c0-7-5-11-11-11-7 0-11 6-11 11 0 7 6 11 11 11 6 2 11-4 11-11z"/>
<glyph glyph-name="quates" unicode="&#79;" d="M0 210c0-69 47-137 122-137 29-1 57 10 79 30 21 20 33 48 33 77 0 48-32 102-83 106-11 1-34 1-34 16 0 20 29 46 77 75 15 9 46 24 46 44 0 16-12 27-36 24-24-3-60-19-108-59-49-41-96-109-96-176z m278 0c0-69 47-137 122-137 29-1 57 10 78 30 22 20 34 48 34 77 0 48-33 102-84 106-10 1-34 1-34 16 0 20 30 46 78 75 15 9 45 24 45 44 0 16-11 27-36 24-23-3-59-19-107-59-50-41-96-109-96-176z"/>
<glyph glyph-name="chat" unicode="&#80;" d="M464 345l-270 0c-25 0-45-20-45-44l0-149c0-25 20-45 45-45l234 0 55-55c4-4 11-6 16-3 6 2 10 7 10 13l0 239c0 24-21 44-45 44z m-75-164l-121 0c-8 1-14 7-14 15 0 8 6 15 14 15l121 0c6 0 11-2 14-7 2-5 2-11 0-15-3-5-8-8-14-8z m30 60l-181 0c-5 0-10 3-13 7-3 5-3 11 0 16 3 4 8 7 13 7l181 0c6 0 11-3 13-7 3-5 3-11 0-16-2-4-7-7-13-7z m-410-73c6-3 12-1 16 3l56 55 38 0 0 75c0 41 34 74 75 74l166 0 0 45c0 12-5 23-14 32-8 8-19 13-31 13l-270 0c-25 0-45-20-45-45l0-239c0-6 4-11 9-13z"/>
<glyph glyph-name="true-tick2" unicode="&#78;" d="M499 442c-6 7-16 11-25 11-10 0-19-4-26-11l-269-277-117 121c-7 7-16 11-26 11-9 0-18-4-25-11-14-15-14-38 0-53l138-143c1-2 3-3 4-5 7-7 17-11 27-11 9 0 19 4 26 11 1 2 3 3 4 5l290 299c14 15 14 38-1 53z"/>
<glyph glyph-name="share" unicode="&#81;" d="M314 345l0 72c0 7 0 14 0 20-1 6 3 12 8 15 6 2 13 0 16-5 13-12 26-24 39-36l127-120c11-11 11-16 0-27l-165-160c-2-1-4-3-6-5-4-2-8-3-12-1-4 1-6 5-7 9-1 3-1 5-1 8 0 28 0 55 0 83 0 9 0 10-10 10-30 0-59-3-88-10-76-18-141-64-182-130-3-5-6-10-9-15-3-5-9-8-14-6-6 1-11 7-10 13 1 10 3 21 6 31 14 59 43 113 84 158 47 51 110 83 179 91 14 3 30 4 45 5z"/>
<glyph glyph-name="play-btn-filled" unicode="&#82;" d="M256 512c-141 0-256-115-256-256 0-141 115-256 256-256 141 0 256 115 256 256 0 141-115 256-256 256z m114-273c-24-15-48-30-71-45-31-19-61-38-91-57-7-4-15-4-21-1-7 3-11 11-11 18 0 34 0 68 0 102 0 33 0 65 0 98-1 9 3 17 10 22 8 4 18 3 24-3 50-31 101-63 151-94 2-2 5-3 8-5 7-3 11-10 11-17 0-8-4-15-10-18z"/>
<glyph glyph-name="bicker-filled" unicode="&#84;" d="M499 30l-97 207-52 110 0 146c0 11-8 19-19 19l-150 0c-11 0-19-8-19-19l0-146-51-110-98-207c-3-6-2-13 1-18 4-5 10-9 16-9l452 0c7 0 13 4 16 9 3 6 4 12 1 18z m-439 11l79 170 234 0 79-170z"/>
<glyph glyph-name="note-filled" unicode="&#85;" d="M185 419l147 0c6 0 12 5 12 12l0 81-171 0 0-81c0-4 1-7 3-9 3-2 6-3 9-3z m226 93l-42 0 0-81c0-21-17-38-38-38l-146 0c-21 0-38 17-38 38l0 81-42 0c-34 0-62-28-62-63l0-378c0-35 27-63 62-63l311 0c32 0 58 26 58 58l0 383c0 35-28 63-63 63z m-264-208l96 0c7 0 12-6 12-13 0-7-5-12-12-12l-96 0c-7 0-13 5-13 12 0 7 6 13 13 13z m222-187l-222 0c-7 0-13 6-13 13 0 7 6 12 13 12l222 0c7 0 13-5 13-12 0-7-6-13-13-13z m0 81l-222 0c-7 0-13 6-13 13 0 7 6 12 13 12l222 0c7 0 13-5 13-12 0-7-6-13-13-13z"/>
<glyph glyph-name="verified-buyes" unicode="&#86;" d="M256 0c-15 1-29 7-40 16-13 10-30 15-46 12-3 0-7 0-9 0-31 0-43 8-59 40-6 16-18 28-34 33-29 9-47 39-40 69 3 16-2 33-12 46-21 22-21 58 0 81 10 12 15 29 12 45-7 30 11 60 40 69 15 5 28 18 33 33 17 32 29 40 59 40 3 0 6 0 10 0 3-1 6-1 10-1 13 0 26 5 36 13 11 9 25 15 40 16 15-1 29-7 41-16 10-8 22-13 35-13 4 0 7 0 10 1 4 0 7 0 10 0 30 0 42-8 59-40 5-16 18-28 33-33 29-9 47-39 40-69-3-16 1-33 12-46 21-23 21-58 0-81-10-12-15-29-12-45 7-30-11-60-40-69-15-6-28-18-33-33-17-33-29-41-59-41-3 0-6 0-10 1-16 3-33-2-45-12-12-9-26-15-41-16z m0 442c-103 0-186-83-186-186 0-103 83-186 186-186 103 0 186 83 186 186 0 103-83 186-186 186z m0-349c-90 0-163 73-163 163 0 90 73 163 163 163 90 0 163-73 163-163 0-90-73-163-163-163z m-84 168c-6 1-12-3-14-9-2-5-1-12 3-16l60-59c2-3 6-4 10-4l1 0c4 0 8 2 10 5l104 118c5 6 5 16-2 21-6 5-15 5-21-1l-93-107-48 48c-2 3-6 5-10 4z"/>
<glyph glyph-name="general" unicode="&#87;" d="M418 434c7-7 14-14 21-22 38-40 60-93 62-149 5-100-54-193-147-232-32-13-67-20-102-20-74-3-148-6-222-9-12-1-24 6-28 17-4 11-2 23 7 30 9 8 19 16 28 23 13 8 23 21 28 35 0 3 0 6-1 8-35 49-49 109-41 169 8 57 37 110 81 148 1 1 1 1 3 2-1-6-2-11-2-16-1-13-1-26-2-40 0-2-1-5-2-7-52-68-54-162-5-233 11-16 12-37 2-55-6-14-15-26-27-36-2-1-3-2-4-3 0 0 0-1 0-2 1 0 3 0 4 0 67 3 134 5 200 8 92 5 170 72 187 163 12 56-2 116-38 161-2 3-2 6-2 8 2 17 2 35 0 52z m-139-181l-59 0c0 9 0 17 0 26 0 15 3 29 8 44 5 13 15 25 28 32 11 6 23 12 35 18 2 1 5 2 8 3 11 4 19 15 20 28 1 13-6 27-18 34-26 13-56 12-81-3-10-7-17-19-18-31l-58 0c0 11 2 22 6 32 9 24 28 42 52 50 43 17 91 16 133-5 29-13 47-43 45-75 1-25-11-50-33-64-8-5-17-9-26-13-6-3-13-6-20-9-13-6-22-19-22-34-1-11 0-22 0-33z m-30-26c10 0 19-4 26-10 6-7 10-16 10-26 0-9-4-18-11-25-6-6-15-10-25-9-9-1-18 3-25 9-7 7-10 16-10 25-1 10 3 19 10 26 6 6 16 10 25 10z"/>
<glyph glyph-name="payment-card" unicode="&#88;" d="M255 66c-64 0-129 0-194 0-14-1-28 3-39 12-14 11-22 28-22 45 0 73 0 146 0 219 0 18 1 36 0 54 0 15 6 30 16 42 11 11 26 17 42 17l4 0c129 0 259 0 388 0 18 1 35-6 47-20 9-10 14-23 14-36 0-93 0-185 0-278-1-15-7-30-18-40-12-11-26-16-42-15-53 0-105 0-158 0z m-228 228l0-6c0-54 0-108 0-162-1-9 3-18 9-25 6-6 15-9 24-8l391 0c9-1 18 2 24 9 6 6 10 15 9 24 0 54 0 108 0 162l0 6z m0 65l457 0c0 13 0 27-1 40 0 6-2 11-5 16-6 9-17 14-28 13-130 0-259 0-389 0-3 0-5 0-8 0-14-3-24-14-26-27 0-14 0-28 0-42z"/>
<glyph glyph-name="true-tick-with-circle" unicode="&#89;" d="M427 394c-17-23-34-44-51-65-43-55-86-110-129-165-3-6-9-10-15-10-7 0-13 2-17 8-27 26-54 52-81 78-4 3-7 8-7 14 0 5 2 10 6 14 3 4 9 6 14 6 5 0 10-3 13-7 21-20 42-40 63-60 2-2 3-3 5-6 13 17 26 33 39 49l143 183c3 6 9 9 15 10 7 0 13-3 17-9 79-82 95-206 40-306-34-62-94-107-164-121-83-21-171 1-234 59-86 75-109 200-55 301 38 76 110 129 193 142 12 2 23 3 34 3 5 1 10-1 14-4 4-3 6-8 6-13 1-5-1-10-4-14-3-5-8-7-14-7-27-1-53-6-78-16-71-25-123-86-137-160-17-79 12-161 75-212 29-26 65-42 103-47 76-14 153 14 202 73 63 72 71 177 20 258-5 8-10 16-16 24z"/>
<glyph glyph-name="support" unicode="&#90;" d="M259 512c69 0 136-28 184-78 49-49 76-116 74-186-3-143-122-256-265-253-142 4-255 122-252 265 4 140 118 252 259 252z m114-258c1 63-50 114-113 114-31 1-60-11-82-32-22-22-34-51-34-81-1-31 11-61 33-82 21-22 51-34 81-34 31 0 60 12 82 33 21 22 33 51 33 82z m-265-173c86-76 215-76 301 0l-60 61c-26-21-57-32-90-32-33 0-65 11-91 32z m323 22c77 86 77 215 0 301l-61-60c21-25 32-57 32-90 0-33-11-65-32-91z m-22 324c-86 76-215 76-301-1l60-60c26 20 58 31 90 31 33 1 65-11 91-31z m-262-264c-21 26-32 58-32 90 0 33 11 65 31 90l-61 61c-76-86-75-215 1-301z"/>
<glyph glyph-name="setting" unicode="&#48;" d="M500 210c-6 5-12 9-17 14l-6 5c-3 2-5 6-5 10l0 40c0 5 2 10 6 13 4 4 8 8 13 12l7 8c12 9 14 26 6 39-15 23-30 48-45 73-8 14-25 19-39 14-5-2-11-4-16-6-4-1-8-2-12-4-4-1-8-1-12 1-13 7-25 14-35 19-4 3-8 7-9 12-2 8-4 18-7 29-3 14-16 24-31 23l-88 0c-16 1-29-10-32-26-2-8-3-16-5-24l-1-3c-1-5-3-8-7-10l-2-1c-6-4-13-8-20-12l-6-3c-4-2-9-4-14-5-7 0-14 2-21 4-5 2-11 3-16 5l-5 1-1 0-2 0c-11 1-22-5-28-14-18-30-32-54-46-76-7-13-5-29 7-39l13-11 9-8c3-2 5-6 6-11 0-12 1-25 1-37 1-6-2-12-6-16-8-6-15-13-22-19l-1-2c-10-8-13-23-6-35 16-28 30-53 45-78 7-12 23-18 36-13l12 3c5 2 11 4 16 5 5 2 10 2 15-1 14-9 24-15 34-21 3-3 6-6 6-10l2-6c2-8 4-17 6-25 3-13 15-23 29-23 31 0 61-1 91-1l0 0c15-1 27 9 31 24l1 7c2 6 3 13 5 20 1 5 4 10 9 12 11 7 22 13 32 20l2 1c7 5 16 7 24 4 6-2 13-4 19-5l8-2c13-4 28 2 35 14 15 26 30 52 44 77 7 13 4 29-7 38z m-287-172c-1 5-2 9-4 13 0 4-1 7-2 10-3 16-12 29-26 37l-8 5c-8 5-17 10-26 16-13 7-29 9-43 4l-6-2c-6-1-12-3-18-5-12 21-25 43-39 67 3 2 5 4 8 7 3 3 7 6 10 9 14 11 21 29 20 46-1 4-1 8-1 12 0 8-1 16-1 24-1 14-7 27-18 36l-16 15-3 2 3 4 11 18 7 13c7 11 13 21 19 31 6-1 11-3 17-4l9-3c14-4 29-2 42 4 11 6 24 13 36 20 14 7 23 20 26 36 1 4 2 8 2 11 1 4 2 8 3 11l79 0c1-5 3-10 4-16 1-3 1-6 2-9 3-14 13-26 25-33 12-7 25-14 37-20 13-7 29-8 43-4l7 3c6 2 11 3 17 5 13-21 27-44 40-65-3-3-6-7-9-9-3-3-6-6-8-8-12-10-18-25-18-40 0-3 0-6 0-8 0-12 0-24 0-36 1-13 7-25 17-33 7-5 13-11 20-17-11-20-24-42-38-67-4 1-8 2-13 4-4 1-8 2-12 3-14 4-29 2-42-5-3-2-6-3-9-4-7-4-14-8-21-12-9-6-18-13-26-20-7-7-11-15-13-24 0-3-1-7-2-10-1-5-2-9-3-13-30 0-55 1-79 1z m121 294c-21 21-49 32-78 32-61 1-110-48-111-108 0-29 11-56 32-76 21-21 49-32 79-32l0 0c29 0 57 11 78 32 21 19 33 47 33 76 0 29-12 56-33 76z m-131-23c14 13 33 20 52 20l1 0c20 0 39-8 54-22 14-15 22-34 21-55-3-39-35-69-75-69l-1 0c-20 0-39 8-54 22-14 15-22 34-21 54 1 19 9 37 24 50z"/>
<glyph glyph-name="delete" unicode="&#49;" d="M418 413l-33-376-242 0-33 376-41-4 33-383c2-17 17-31 35-31l254 0c18 0 33 14 35 31l34 382z m-77 99l-154 0c-19 0-34-16-35-35l0-66 42 0 0 59 140 0 0-59 42 0 0 66c0 19-16 35-35 35z m147-80l-447 0c-12 0-21-10-21-21 0-12 9-21 21-21l447 0c11 0 21 9 21 21 0 11-10 21-21 21z"/>
<glyph glyph-name="saving" unicode="&#50;" d="M264 0c-19 0-51 1-84 3-22 0-45 1-67 3-29 2-56 16-73 40-10 15-15 33-13 51 5 55 21 108 49 156 22 38 49 72 82 101 5 4 11 6 17 6 53 0 106 0 159-1 5 0 9-2 13-5 60-53 103-123 121-201 5-17 8-35 10-53 4-36-17-71-51-85-19-7-39-11-60-11-29-2-59-3-103-4z m4 92l0 24c8 3 15 6 22 10 9 6 15 16 17 27 1 11-2 22-9 31-7 7-16 11-26 13-10 3-21 5-31 8-7 1-11 6-11 13 0 6 4 12 10 14 7 4 16 4 23 1 7-3 13-9 16-16l25 0c0 19-11 32-36 39l0 25-31 0 0-25c-3-1-5-1-7-2-20-6-32-26-28-46 3-16 16-28 32-30 12-3 24-6 35-10 6-1 10-6 10-11 0-7-3-12-9-14-9-5-21-6-31-2-6 2-11 7-13 12-1 2-2 3-3 3-8 1-16 0-25 0 1-21 18-37 39-39l0-25z m-15 319c-24 0-49 0-73-1-10 0-19 4-26 10-16 14-29 31-37 51-10 24 3 40 28 41 8 0 16-1 24-4 23-9 46-18 68-28 11-4 22-4 33 0 22 10 44 19 67 27 11 3 21 4 32 4 8 0 16-4 20-11 4-7 5-15 1-22-7-18-17-34-30-47-22-24-14-20-46-20-20 0-40 0-61 0z m-1-37l-78 0c-3 0-6 1-9 4-2 2-4 5-4 8 0 4 1 7 3 9 2 2 5 4 9 4 2 0 4 0 7 0l143 0c3 0 6 0 9-1 8 0 12-5 12-12 0-3-2-6-5-9-2-2-5-3-9-2l-78 0z"/>
<glyph glyph-name="recommend-friend" unicode="&#51;" d="M122 16c-36 0-72 4-108 11-8 1-15 9-14 18 2 27 6 54 10 81 9 36 40 62 78 63 24 1 49 1 74-1 39-4 69-35 73-74 3-22 6-44 8-67 2-9-4-18-13-19-23-4-45-7-68-10-13-2-27-1-40-2z m321 135c-3 10-6 19-9 28-4 17-19 29-36 32-11 1-22-2-31-9-20-14-39-29-58-43-3-2-7-3-10-3-7 1-14 2-20 4-8 1-14 9-13 17 3 27 5 54 10 81 8 36 40 63 77 63 25 2 50 1 74-1 37-3 67-31 73-68 3-23 6-46 9-69 2-15-3-22-18-24-16-3-31-5-48-8z m-242 138c0-43-36-79-79-79-44 0-79 35-80 79 0 43 35 79 78 80 22 0 42-8 57-23 15-15 24-35 24-57z m107 133c0 44 36 79 80 79 44 0 79-35 79-79 0-44-36-79-79-79-21 0-42 8-56 23-15 15-24 35-24 56z m29-325c-7 2-13 4-19 6-5 1-8 5-8 9-1 4 1 9 4 11 24 18 47 35 70 53 3 3 7 4 11 3 4-2 7-5 7-9 10-27 19-54 29-82 1-4 2-9-2-12-4-2-8-3-13-3-6 2-13 4-19 6-1-2-2-4-3-6-19-42-65-67-111-60-2 1-5 2-7 4 2 2 3 5 5 7 25 17 44 41 55 70 0 0 0 1 1 3z"/>
<glyph glyph-name="thumb-filled" unicode="&#52;" d="M37 341c-20 0-37-16-37-37l0-245c0-21 17-38 37-38 20 4 91-15 91 38l0 245c0 53-72 34-91 37z m390-16l-101 0c11 27 17 56 16 86 4 42-27 80-69 85-22 0-32-11-32-64 0-51-49-91-81-113l0-264c106-49 227-37 243-39 107 0 85 139 108 209 4 25-3 51-19 70-16 19-40 30-65 30z"/>
<glyph glyph-name="dropdown-arrow1" unicode="&#53;" d="M271 140c-4-4-9-6-15-6-6 0-11 2-15 6l-205 208c-6 6-8 15-4 23 3 8 11 13 19 13l410 0c8 0 16-5 19-13 4-8 2-17-4-23z"/>
<glyph glyph-name="upload" unicode="&#54;" d="M153 101c-17 0-35 1-53 5-63 15-106 75-99 140 8 62 57 110 119 116 4 0 4 2 5 4 13 44 48 77 92 89 71 22 147-17 171-88 0-4 3-6 6-6 60-7 108-53 117-113 8-70-42-134-113-144-18-2-36-3-54-2-6-1-13-1-19 0-9-1-17 7-17 16 0 4 2 9 5 12 3 3 7 4 12 4 17 0 33 0 50 0 49-1 92 33 102 81 5 27-2 54-19 76-16 22-41 35-68 38-4 1-8 1-12 1-5-1-10 1-14 4-4 3-6 8-7 13-3 21-14 40-30 54-27 25-66 34-101 22-36-9-63-38-70-75-3-14-8-18-23-18-48-1-89-36-98-83-4-26 3-53 19-73 16-21 40-35 66-38 8-2 16-2 25-2 14 0 28 0 42 0 4 1 9-1 13-4 3-3 5-8 5-12 0-5-2-9-5-12-4-3-8-5-13-4-10-1-19-1-34-1z m120 177l0-6c0-67 0-134 0-200 0-3 0-5 0-7-2-8-9-14-17-14-9 1-16 8-16 16 0 8 0 16 0 24 0 61 0 121 0 182l0 6c-2-2-3-3-4-5-17-16-34-33-51-50-4-4-11-6-17-4-6 2-11 7-11 13-1 5 0 11 4 14 28 28 56 56 84 84 3 4 8 6 13 5 4 0 9-2 12-6 25-25 51-51 76-76 2-2 4-4 6-6 3-3 5-8 5-12 0-5-2-9-5-12-3-3-8-5-12-5-5 0-9 2-12 5-17 17-33 33-50 50-1 1-2 3-3 5z"/>
<glyph glyph-name="calendar" unicode="&#55;" d="M459 450l-32 0 0 25c0 8-6 14-14 14-7 0-13-6-13-14l0-25-131 0 0 25c0 8-6 14-13 14-7 0-13-6-13-14l0-25-132 0 0 25c0 8-6 14-14 14-7 0-13-6-13-14l0-25-31 0c-29-1-53-25-53-54l0-310c0-30 24-53 53-53l406 0c29 0 53 23 53 53l0 310c0 29-24 54-53 54z m26-364c0-15-11-27-26-27l-406 0c-14 0-26 12-26 27l0 310c0 15 11 27 26 27l31 0 0-19c0-7 6-13 13-13 8 0 14 6 14 13l0 19 132 0 0-19c0-7 6-13 13-13 7 0 13 6 13 13l0 19 131 0 0-19c0-7 6-13 13-13 8 0 14 6 14 13l0 19 32 0c15 0 27-12 26-27z m-264 251l-23 0c-5 0-10-3-12-7-3-4-3-9 0-14 2-4 7-6 12-6l23 0c7 0 13 6 13 13 0 7-6 13-13 14z m93 0l-23 0c-8-1-13-7-13-14 0-7 5-13 13-13l23 0c7 0 13 6 13 13 0 7-6 13-13 14z m93 0l-23 0c-5 0-9-3-12-7-2-4-2-9 0-14 3-4 7-6 12-6l23 0c8 0 13 6 13 13 0 7-5 13-13 14z m-186-93l-23 0c-5 1-10-2-12-6-3-4-3-9 0-14 2-4 7-6 12-6l23 0c7 0 13 6 13 13 0 7-6 13-13 13z m-94 0l-23 0c-5 1-9-2-12-6-2-4-2-9 0-14 3-4 7-6 12-6l23 0c8 0 13 6 13 13 0 7-5 13-13 13z m187 0l-23 0c-5 1-10-2-12-6-3-4-3-9 0-14 2-4 7-6 12-6l23 0c7 0 13 6 13 13 0 7-6 13-13 13z m93 0l-23 0c-5 1-9-2-12-6-2-4-2-9 0-14 3-4 7-6 12-6l23 0c8 0 13 6 13 13 0 7-5 13-13 13z m-186-90l-23 0c-5 0-10-3-12-7-3-4-3-9 0-13 2-5 7-7 12-7l23 0c7 1 13 6 13 13 0 8-6 13-13 14z m-94 0l-23 0c-5 0-9-3-12-7-2-4-2-9 0-13 3-5 7-7 12-7l23 0c8 1 13 6 13 13 0 8-5 13-13 14z m187 0l-23 0c-5 0-10-3-12-7-3-4-3-9 0-13 2-5 7-7 12-7l23 0c7 1 13 6 13 13 0 8-6 13-13 14z"/>
<glyph glyph-name="clock" unicode="&#56;" d="M255 2c-141 0-255 114-255 255 0 141 114 255 255 255 141 0 255-114 255-255 0-141-114-255-255-255z m0 478c-123 0-223-100-223-223 0-123 100-223 223-223 123 0 223 100 223 223 0 123-100 223-223 223z m112-361c-5 0-9 1-12 4l-111 112c-3 3-5 7-5 11l0 149c0 9 7 16 16 16 9 0 16-7 16-16l0-142 107-107c4-4 6-11 3-17-2-6-8-10-14-10z"/>
<glyph glyph-name="promotion" unicode="&#57;" d="M472 207l-150 150-84 84-24 24c-6 6-15 6-22 0-6-6-6-16 0-22l15-15-159-266-9 10c-6 6-16 6-22 0-6-6-6-16 0-22l140-141c6-6 16-6 22 0 6 6 6 16 0 22l-9 10 75 45 35-36c26-24 67-24 92 1 25 25 25 66 1 91l-13 13 75 45 15-15c6-6 16-6 22 0 6 6 6 16 0 22z m-121-135c-14-13-35-13-49 0l-30 30 61 36 18-17c13-14 13-36 0-49z m-204-9l-68 69-8 8 159 265 183-183z m347 444c-3 3-7 5-11 5-4 0-8-2-11-5l-87-87c-6-6-6-15 0-21 6-7 16-7 22 0l87 87c3 2 5 6 5 10 0 5-2 9-5 11z m-156 4c-7 3-17 0-20-8l-29-64c-3-5-3-11 1-15 3-5 8-8 14-7 6 1 10 4 13 9l29 64c3 8 0 17-8 21z m159-159c-3 7-12 11-20 7l-64-29c-5-2-9-7-9-13-1-5 2-11 6-14 5-3 11-4 16-1l64 29c7 4 11 13 7 21z"/>
<glyph glyph-name="mail" unicode="&#33;" d="M485 417c-6 6-13 11-21 13l0 0-6 2-1 0c-2 1-3 1-5 1l-1 0c-3 0-5 1-7 1l-385 0c-2 0-4 0-6-1l-1 0c-2 0-4 0-6-1l-1 0-5-2-1 0c-8-3-15-7-21-13-1 0-1 0-1-1l-2-2c-1-1-2-2-2-3l-2-1c0 0 0 0 0 0 0-1 0-1 0-1-7-9-11-21-11-33l0-248c0-15 6-29 16-40 0-1 1-1 1-1 11-11 26-18 41-18l386 0c32 1 58 27 59 59l0 248c0 15-6 30-18 41z m-431-14c1 1 3 1 5 1l385 0c2 0 4 0 5-1l6-1-91-75-101-82-1-1c-6-5-15-5-21 0l-102 83-91 75z m418-275c0-7-3-14-8-20-5-5-13-8-20-8l-385 0c-7 0-14 3-19 8l-1 1c-5 5-8 12-8 19l0 247 89-72 56-46-88-83c-6-6-6-16 0-22 6-6 15-6 21 0l91 86 22-18c9-7 19-10 30-10 11 0 21 4 29 11l1 0 21 18 92-87c6-6 16-6 21 0 6 6 6 16 0 22l-89 84 56 45 89 72z"/>
<glyph glyph-name="call" unicode="&#34;" d="M438 432c-96 102-256 107-358 12-102-96-107-256-12-359 4-4 8-8 12-11 47-48 111-74 178-74 2 0 4 0 6 0 34 0 68 7 99 21 25 10 45 29 57 54 10 24 4 53-14 72 13 15 12 38-1 52-1 1-1 2-2 2l-35 35c-8 8-18 13-28 13-11 0-21-5-29-12l-15-16c-2 1-4 2-5 2-20 13-37 29-51 47-5 6-10 13-14 20 4 3 7 7 11 10 1 1 2 2 3 3l2 2c16 14 17 38 4 54-1 1-2 2-4 3l-17 18c-2 2-4 4-6 6-4 4-8 8-12 12-7 7-17 12-28 12-11 0-21-5-28-12l-22-22c-10-10-15-22-16-36-1-17 2-35 8-51 12-31 29-59 51-84 28-35 63-62 103-81 19-10 39-16 60-18l5 0c15 0 30 6 41 16 9-9 11-22 6-34-11-27-55-53-128-53-120 1-216 98-216 218 0 120 96 217 216 218l0 0c68 0 132-31 174-86 41-54 55-124 36-190-1-5 0-9 2-13 3-6 10-10 17-9 7 1 13 6 15 13 24 87-1 182-65 246z m-218-100c-1-1-1-1-2-2l-9-9c-3-3-7-7-11-10l0 0-2-2c-6-7-9-16-5-24l0-1c6-13 13-25 22-36 17-21 37-39 59-54 3-2 6-3 9-5 2-1 4-2 5-3 1 0 1 0 2-1 3-1 6-2 10-2 6 0 12 2 16 7l22 22c1 1 2 2 3 2 1 0 3-1 3-2l37-36c1-1 1-2 1-3 0-1 0-2 0-3-1 0-2-1-2-1-2-3-5-5-8-8-4-4-9-9-13-13-4-5-11-8-17-8l-2 0c-17 2-33 7-47 15-36 17-67 41-92 72-19 22-35 47-45 74-5 12-7 24-7 36 1 6 3 10 7 14l22 22c1 1 2 1 3 2 1 0 3-1 4-3 4-3 7-7 11-11l25-24c0-1 1-2 1-3 0 0 0-1 0-2z"/>
<glyph glyph-name="notification2" unicode="&#35;" d="M286 407c0-51 44-95 95-95 9 0 14 0 22 3 41 11 74 46 74 92 0 52-44 96-96 96-16 0-32-6-46-14-5 0-8-3-11-5-5-6-11-8-13-14 0-3-3-3-3-5-3-3-3-6-6-6-2-5-5-8-8-13 0 0 0-3-3-3 0-3-2-8-2-14 0 0 0-3 0-3-3-5-3-13-3-19z m196-264c-13 13-24 30-32 49-11 30-19 60-22 90-14-6-30-8-47-8-76 0-136 60-136 136 0 38 16 74 44 98-11 0-22 3-36 3-22 0-46-5-68-14-24-13-49-30-65-54-17-25-28-52-30-79-3-14-6-28-6-44 0-11 0-22-3-33 0-46-16-92-43-131-14-13-17-35-8-51 2-6 5-9 11-9 40 0 81 0 114 0l194 0c32 0 73 0 114 0 6 0 8 0 8 6 3 8 6 19 9 27 5 6 5 11 2 14z m-174-87c-17-9-36-14-55-14-19 0-38 5-54 14l-11-11-19-17c24-19 54-27 84-27 30-3 58 8 82 27l-8 8z"/>
<glyph glyph-name="chat-2" unicode="&#36;" d="M260 512l-1 0c-94 0-180-54-221-139-41-84-30-185 29-259l-36-83c-3-7 0-15 7-18 3-1 5-1 8-1l131 23c26-9 54-14 82-14 134 1 243 110 243 245 1 134-107 244-242 246z m-84-196l72 0c7-1 12-7 12-14 0-7-5-12-12-13l-72 0c-7 1-12 6-12 13 0 7 5 13 12 14z m166-94l-166 0c-5-1-10 2-13 6-3 5-3 10 0 15 3 4 8 6 13 6l166 0c5 0 10-2 13-6 3-5 3-10 0-15-3-4-8-7-13-6z"/>
<glyph glyph-name="instagram" unicode="&#37;" d="M265-7l-5 0c-41 0-79 1-115 3-33 1-64 13-89 33-24 20-40 47-48 77-5 27-8 55-7 82-1 19-1 41-1 64 0 23 0 46 1 65-1 27 2 54 7 81 7 30 24 58 48 77 25 21 56 32 89 34 36 2 74 3 115 3 40 0 78-1 115-3 32-2 63-13 88-34 24-19 41-47 48-77 6-27 8-54 8-81 0-19 0-42 0-65 0-22 0-45 0-64 0-27-2-55-8-82-7-30-24-57-48-77-25-20-56-32-88-33-35-2-71-3-110-3z m-5 40c40 0 76 1 112 3 24 1 47 10 66 25 17 14 29 34 34 55 5 24 7 48 6 73 1 18 1 41 1 63 0 23 0 45-1 64 1 24-1 48-6 72-5 22-17 42-34 56-19 15-42 23-66 24-36 2-72 3-112 3-40 0-77-1-113-3-24-1-47-9-65-24-17-14-29-34-34-56-5-24-7-48-7-72 0-19 0-41 0-64 0-22 0-45 0-63 0-25 2-49 7-73 5-21 17-41 34-55 19-15 41-24 65-25 36-2 73-3 113-3z m-1 92c-70 0-127 57-127 127 0 70 57 127 127 127 70 0 126-57 126-127 0-70-56-126-126-127z m0 213c-48 0-87-38-87-86 0-47 39-86 87-86 47 0 86 39 86 86 0 48-39 86-86 87z m141 82c-17 0-31-14-31-31 0-17 14-30 31-30 16 0 30 13 30 30 0 8-3 16-9 22-6 5-13 9-21 9z"/>
<glyph glyph-name="medal-filled" unicode="&#83;" d="M335 149l24 39 43 14 5 45 32 32-15 42 15 43-32 31-5 45-43 15-24 38-44-5-38 24-39-24-44 5-24-38-43-15-4-45-33-31 16-43-16-42 33-32 4-45 43-14 24-39 44 5 39-24 38 24z m-213 172c0 72 58 131 130 131 73 0 131-59 131-131 0-72-58-131-131-131-72 0-130 59-130 131z m131 101c-56 0-101-45-101-101 0-55 45-100 101-100 55 0 100 45 100 100 0 56-45 101-100 101z m-46-299l-53-6-28 45-10 4-41-129 74 4 59-47 34 107z m172 39l-28-45-53 6-35-22 34-107 59 47 74-4-41 128z"/>
<glyph glyph-name="graduation-cap2" unicode="&#38;" d="M240 163l-141 50 0-96c0-11 9-21 21-21l282 0c12 0 21 10 21 21l0 96-141-50c-14-4-29-4-42 0z m-226 125l240-85c4-1 9-1 14 0l211 75 0-83c0-12 10-21 22-21 11 0 21 9 21 21l0 113c0 9-6 17-14 20l-240 84c-5 2-10 2-14 0l-240-84c-8-3-14-11-14-20 0-9 6-17 14-20z"/>
<glyph glyph-name="medal-filled2" unicode="&#39;" d="M378 236l50 34-21 57 22 57-51 33-16 60-61-3-47 38-47-38-61 3-16-59-51-34 22-57-22-57 51-34 16-59 61 3 47-38 47 38 61-3z m-124-16c-43-1-83 25-100 65-17 40-8 86 23 117 30 31 77 41 117 24 40-17 66-56 66-99 0-59-47-107-106-107z m0 184c-41 0-75-33-75-75 0-41 34-75 75-75 41 0 75 34 75 75 0 42-34 75-75 75z m57-255l-57-44-57 45-66-4-42-85 71-3 46-51 48 97 48-97 46 51 71 3-41 85z"/>
<glyph glyph-name="advance-filter" unicode="&#40;" d="M148 138l216 0c17 0 30-13 30-30 0-16-13-29-30-29l-216 0c-17 0-30 13-30 29 0 17 13 30 30 30z m-79 157l374 0c16 0 30-13 30-29 0-16-14-30-30-30l-374 0c-16 0-30 14-30 30 0 16 14 29 30 29z m-39 158l452 0c17 0 30-13 30-30 0-16-13-29-30-29l-452 0c-17 0-30 13-30 29 0 17 13 30 30 30z"/>
<glyph glyph-name="true-tick-filled-circle" unicode="&#41;" d="M256 512c-143 0-256-113-256-256 0-143 113-256 256-256 143 0 256 113 256 256 0 143-113 256-256 256z m128-219l-143-139c-11-11-33-11-44 0l-69 69c-15 11-15 33 0 44 11 11 33 11 44 0l40-40c4-4 7-4 11 0l113 113c11 11 33 15 44 0 15-15 15-33 4-47z"/>
<glyph glyph-name="play" unicode="&#73;" d="M512 270c-3 69-35 132-85 176-50 44-119 69-185 66-69-3-132-35-179-85-47-50-69-116-63-185 9-135 119-239 254-242 7 0 10 0 16 0 141 9 251 132 242 270z m-254-232c-4 0-4 0 0 0-123 0-220 100-220 220 0 119 100 216 220 216 59 0 113-25 153-66 41-40 63-97 63-154 0-119-97-216-216-216z m125 235l-176 101c-3 3-6 3-12 3-7 0-10-3-13-6-3-3-3-10-3-16 0-22 0-44 0-66l0-66c0-22 0-44 0-66 0-3 0-9 3-13 3-6 10-9 13-9 3 0 9 0 12 3 22 13 41 25 63 38 38 22 76 44 110 63 3 3 9 6 9 9 7 10 4 22-6 25z m-166-88l0 142 122-69z"/>
<glyph glyph-name="job-bag" unicode="&#42;" d="M512 312c0 28 0 56 0 85 0 14-6 20-20 20-37 0-75 0-112 0-5 0-6 1-6 5 0 18 0 36 0 54 0 5-1 10-5 13-3 4-8 5-13 5-67 0-133 0-200 0-5 0-10-1-13-5-4-3-5-8-5-13 0-18 0-35 0-53 0-5-1-7-6-7-37 1-75 0-112 0-15 0-20-5-20-19 0-28 0-57 0-86 0-15 4-29 13-41 3-4 4-8 4-12 0-68 0-136 0-204 0-17 4-21 21-21l437 0c15 0 20 5 20 20 0 69 0 138 0 206 0 4 1 8 4 10 9 13 13 28 13 43z m-336 150c27 0 54 0 80 0 27 0 53 0 80 0 5 0 6-1 6-6-1-12-1-23 0-34 0-4-1-6-5-6-54 0-108 0-161 0-5 0-6 1-6 6 1 11 1 23 0 34 0 5 2 6 6 6z m280-397c-133 0-267 0-400 0-6 0-8 0-8 6 1 53 0 106 1 159 0 2-2 5 1 6 2 1 3-1 5-2 26-14 55-24 85-30 14-3 29-6 43-8 4 0 4-2 4-4 0-7 0-14 0-22 0-4 1-9 4-12 4-3 8-5 13-4 35 0 69 0 104 0 4-1 9 1 12 4 3 3 5 8 5 12 0 7 0 14 0 21 0 4 1 5 4 5 47 5 92 19 134 41l0-7c0-53 0-106 0-159 0-5-1-6-7-6z m-237 157c0 4 1 5 4 5 22 0 44 0 66 0 3 0 4-1 4-4 0-11 0-22 0-33 0-4-2-5-5-5-11 0-21 0-32 0-11 0-22 0-33 0-3 0-4 1-4 5 0 11 0 22 0 33z m244 56c-14-12-29-21-46-28-28-11-57-19-87-23-4-1-5 0-5 4 0 5 0 9 0 14-1 7-6 12-13 13-2 1-4 1-6 1-33 0-67 0-100 0-13 0-19-6-19-19 0-13 0-14-14-11-32 4-64 14-93 28-15 7-28 17-39 29-6 7-9 16-9 25 0 23 0 45 0 68 0 4 1 6 6 6 145 0 291 0 436 0 5 0 6-1 6-6 0-12 0-24 0-36 0-9-1-19 0-29 1-14-6-27-17-36z"/>
<glyph glyph-name="send-button" unicode="&#43;" d="M369 344c-14-7-27-14-40-21-81-44-162-87-243-130-2-2-5-1-8 0-23 16-46 32-69 48-6 3-9 9-9 16 1 7 6 13 13 15 83 30 166 60 249 90l234 84c1 1 3 1 4 2 3 1 5 0 7-2 2-1 3-4 2-6-1-3-2-5-3-8-72-119-145-239-217-358-2-5-7-9-12-10-5-1-11 1-15 4-17 12-35 24-52 36-2 2-5 2-8 0-17-12-35-23-52-35-4-4-10-5-15-2-4 2-7 8-6 13 0 26 0 52 0 78 0 3 2 7 5 8 78 59 156 117 234 175 0 1 1 1 1 2z"/>
<glyph glyph-name="chat-3" unicode="&#44;" d="M375 437l-246 0c-72-1-130-60-130-132 0-73 58-131 130-133l144 0 88-97c5-6 14-9 22-6 7 3 13 11 13 19l0 86c67 12 114 73 108 140-5 68-60 121-128 123z m90-135c0-49-40-89-90-89-11 0-20-9-20-20l0-52-58 65c-3 4-9 7-15 7l-153 0c-49 2-88 42-88 92 0 49 39 89 88 91l247 0c24 0 48-10 64-28 17-18 26-42 25-66z"/>
<glyph glyph-name="note-3" unicode="&#45;" d="M122 0c-34-1-63 23-69 57-1 5-2 10-2 16 0 55 0 111 0 166l0 0c0 57 0 114 0 171 1 27 18 51 43 62 8 4 17 5 26 5 13 0 25 0 38 0 14 0 29 0 43 0 3 0 5 1 5 3 9 19 28 32 50 32 21 0 40-12 49-31 1-3 4-4 6-4 27 0 54 0 80 0 38 0 68-29 70-66 0-3 0-5 0-7 0-110 0-221 0-331 1-26-12-50-35-63-11-7-23-10-36-10-51 0-102 0-152 0-39 0-78 0-116 0z m0 454c-13 0-26-5-35-14-9-9-14-22-13-35 0-111 0-221 0-332 0-4 0-8 1-12 4-22 24-38 47-37 89 0 179 0 268 0 13-1 25 4 34 14 10 9 14 21 14 34 0 16 0 32 0 47 0 95 0 190 0 285 1 13-4 26-14 36-9 9-22 15-35 14-12 0-25 0-38 0l-4 0c0-11 0-21 0-30 0-10-3-20-10-27-7-7-17-11-27-11-36 0-72 0-109 0-9 0-19 3-26 11-7 7-10 16-10 26 0 10 0 20 0 31-1 0-3 0-4 0-8 0-16 0-24 0-5 0-10 0-15 0z m66-4c0-9 0-18 0-26 0-10 5-14 14-14l71 0c13 0 26 0 39 0 6-1 11 3 12 9 0 11 0 23 0 35-2 0-3 0-4 0l-8 0c-4 0-8 0-13 0-5 0-10 3-11 9-1 2-1 3-2 5-5 13-18 22-32 21-13-1-25-10-28-23-3-10-6-12-16-12l-22 0c0-2 0-3 0-5z m39-281c-16 16-32 32-48 48-2 2-4 5-4 8 0 4 1 7 3 9 3 3 6 4 9 4 3-1 6-2 9-5 13-13 26-26 39-40 0 0 1 0 1-1 21 22 43 44 64 65 6 6 11 12 17 17 2 3 5 4 8 5 3 0 6-2 9-4 2-2 3-5 3-9 0-3-2-6-4-8-23-24-46-47-69-70-6-7-12-13-19-20-2-3-5-4-9-4-4 0-7 2-9 5z"/>
<glyph glyph-name="play-btn-2" unicode="&#46;" d="M1 241c-9 141 99 262 240 271 141 8 262-99 270-240 9-141-98-263-239-271-6-1-11-1-17-1-135 1-246 106-254 241z m28 17c-1-92 54-176 139-212 85-35 183-16 248 49 66 64 85 162 50 248-35 85-118 140-210 140l0 0c-125 0-226-100-227-225z m155-115c-2 3-3 7-3 10 0 35 0 69 0 103 0 34 0 68 0 103-1 5 2 11 7 14 5 3 12 3 16-1 60-34 119-68 179-103 5-2 9-7 9-13 0-6-4-12-9-14-60-34-119-68-178-102-3-2-6-3-10-3-4 0-8 2-11 6z m26 33l139 80-139 80z"/>
<glyph glyph-name="edit" unicode="&#58;" d="M493 442c-17 18-35 35-51 51-12 12-29 19-46 19l0-1 0 1c-18 0-35-7-47-19l-73-74-63-62-7-8c-49-48-99-98-148-147-6-5-10-12-12-20-10-33-19-67-29-100l-16-59c-2-6-1-13 4-18 3-3 7-5 12-5 2 0 4 0 6 1l42 12c35 10 72 20 108 30 13 3 24 10 33 19 2 3 5 6 8 9 1 1 3 2 4 4l74 74c66 65 134 133 200 200 13 12 20 29 20 47 0 17-7 34-19 46z m-333-372l-70-20-56-15 24 85 12 41z m314 302c-8-8-16-15-24-23-3-2-6-5-8-8l-17 17-85 85c3 3 6 6 9 9 8 8 16 16 25 24 6 5 14 8 22 8 9 0 18-4 25-10 18-18 36-36 52-53 13-14 13-35 1-49z m-54-52l-153-153-80-80-101 101 188 188 45 45 76-76z"/>
<glyph glyph-name="chat-1" unicode="&#59;" d="M512 238c0-68 0-136 0-204 1-6-2-12-8-16-5-3-12-3-17 1-2 2-5 5-7 7-40 39-80 77-120 116-2 2-5 3-8 3-97 0-195 0-293 0-25-1-47 14-56 38-2 7-3 14-3 20 0 79 0 157 0 235 0 28 20 52 47 57 4 0 9 1 13 1 131 0 261 0 392 0 28 1 52-17 58-44 1-5 2-11 2-16 0-66 0-132 0-198z m-31-170l0 4c0 122 0 244 0 366 0 3 0 6-1 9-4 12-15 20-27 19l-394 0c-1 0-3 0-4 0-13-1-24-12-24-25 0-80 0-160 0-240 0-4 2-9 4-13 6-9 15-13 25-12 100 0 199 0 299 0 7 0 13-3 17-7 28-28 57-55 85-82 6-6 13-13 20-19z"/>
<glyph glyph-name="question" unicode="&#60;" d="M256 0c-68 0-133 27-181 75-48 48-75 114-75 182 0 34 7 68 20 99 13 30 31 57 55 81 48 48 113 75 180 75l2 0c34 0 68-7 99-20 95-41 156-134 156-237 0-34-7-67-20-99-27-61-75-110-137-136-31-13-65-20-99-20z m-89 463c-54-23-97-66-119-120-12-27-18-57-18-87 0-60 24-118 67-160 42-42 99-66 159-66l1 0c124 1 225 102 225 226 0 125-101 226-226 226l-1 0c-31 0-60-7-88-19z m83-354c-15 1-27 13-27 28 0 16 13 28 28 28l0 0c8-1 15-4 20-9 5-5 8-12 8-20 0-7-3-14-9-19-5-5-12-8-19-8z m-16 97c-3 24 9 47 31 58 8 5 16 10 24 15 14 10 24 24 27 40 3 16 0 32-9 45-6 10-16 16-27 19-10 3-20 5-30 5-15 0-30-4-41-13-17-12-26-31-27-51 0 0 0-1 0-1 0-1 0-2 0-3 0-8-7-14-15-14l0 0c-8 0-15 7-15 15 0 21 6 41 19 58 19 26 49 40 81 39 22 1 44-6 62-19 17-12 28-30 31-50 3-17 2-35-3-52-4-11-10-21-19-29-8-8-18-15-28-21-8-5-15-9-21-13-6-4-10-11-9-19 0-2 0-5 0-9 0-4-2-8-5-11-2-3-6-5-11-5-8 0-15 7-15 16z"/>
<glyph glyph-name="cost-effective" unicode="&#61;" d="M342 219c11 1 21-8 22-19 0-6 5-10 10-10 6 0 10 4 10 10 0 18-14 34-32 38l0 5c0 6-4 10-10 10-5 0-10-4-10-10l0-5c-18-4-31-20-32-38 1-22 20-40 42-39 10-2 17-11 16-21-1-10-9-18-20-17-10 0-18 9-18 19 0 5-4 10-10 10-5 0-10-5-10-10 1-19 14-34 32-38l0-4c0-6 5-10 10-10 6 0 10 4 10 10l0 4c18 3 32 19 32 38-1 22-20 40-42 39-7-1-15 2-19 8-4 7-4 15 0 21 4 7 12 10 19 9z m110 21c-13 21-32 37-54 47-3 2-7 2-10 0-3-2-4-6-4-9 0-4 2-7 6-9 27-13 47-36 57-64 9-29 6-60-8-86-2-5 0-11 4-14 5-3 11-1 14 4 22 42 20 92-5 131z m-95 40l1 0c5 0 10 5 10 10 0 6-5 10-10 10l-1 0c-5 0-10-4-10-10 0-5 5-10 10-10z m-62-209c-27 13-48 36-57 65-10 28-7 59 7 86 3 5 1 11-4 13-5 3-11 1-14-4-16-31-19-68-8-101 11-34 35-62 67-77 5-2 11 0 13 5 3 5 1 11-4 13z m32-11l0 0c-6 0-10-4-10-10 0-5 4-10 9-10l1 0c6 0 10 5 10 10 0 6-4 10-10 10z m61 274c-2 3-3 6-5 8l26 0c26 0 46 21 46 46 0 26-20 46-46 46l-80 0c10 14 11 33 3 48-8 15-24 24-41 24l-245 0c-25 0-46-20-46-46 0-25 21-46 46-46l80 0c-11-15-11-36 0-52l-26 0c-20 0-37-12-43-31-7-18-1-39 14-51-11-8-17-22-17-36 0-14 6-27 17-36-11-8-17-22-17-36 0-14 6-27 17-36-15-12-21-32-14-51 6-18 23-31 43-31l118 0c49-52 126-68 192-40 66 29 107 96 102 168-5 72-55 133-124 152z m21 80c10 0 18-4 23-13 5-8 5-18 0-26-5-8-13-13-23-13l-245 0c-9 0-18 5-23 13-5 8-5 18 0 26 5 9 14 13 23 13z m-363 20c-14 0-26 12-26 26 0 15 12 26 26 26l245 0c15 0 26-11 26-26 0-14-11-26-26-26z m54-92l245 0c4 0 8-1 12-2-5 0-10 0-15 0-45 0-88-18-120-50l-122 0c-14 0-26 12-26 26 0 15 12 26 26 26z m0-72l105 0c-12-15-20-33-26-52l-79 0c-14 0-26 12-26 26 0 15 12 26 26 26z m0-72l74 0c-2-17-3-35 0-52l-74 0c-9 0-18 5-23 13-5 8-5 18 0 26 5 8 14 13 23 13z m0-124c-14 0-26 12-26 26 0 15 12 26 26 26l78 0c5-18 13-36 24-52z m242-54c-83 0-150 67-150 150 0 83 67 150 150 150 83 0 150-67 150-150 0-83-67-150-150-150z"/>
<glyph glyph-name="high-scalabel" unicode="&#62;" d="M474 512l-276 0c-18 0-32-14-32-32l0-193c0-6 4-11 10-11 6 0 11 5 11 11l0 193c0 6 5 10 11 10l276 0c6 0 11-4 11-10l0-277c0-6-5-10-11-10l-196 0c-6 0-11-5-11-11 0-6 5-11 11-11l196 0c18 0 32 14 32 32l0 277c0 18-14 32-32 32z m-246-354c-6 0-11-4-11-10l0-117c0-2-2-4-4-4l-188 0c-2 0-3 2-3 4l0 188c0 2 1 3 3 3l112 0c6 0 10 5 10 11 0 6-4 11-10 11l-112 0c-14 0-25-11-25-25l0-188c0-14 11-25 25-25l188 0c14 0 25 11 25 25l0 117c0 2-1 5-3 7-2 2-5 3-7 3z m-156-80c3-2 5-4 8-4 3 0 6 2 8 4l327 327 0-83c0-6 5-11 10-11 6 0 11 5 11 11l0 109c0 2-1 5-3 7 0 0 0 0 0 0 0 1 0 1 0 1-2 1-5 2-7 2 0 0 0 0-1 0l-109 0c-5 0-10-4-10-10 0-6 5-11 10-11l83 0-327-327c-2-2-3-5-3-8 0-3 1-5 3-7z"/>
<glyph glyph-name="secure" unicode="&#63;" d="M213 397c-2 5-8 8-13 6-18-7-36-14-55-19-4-2-7-6-7-10l0-39c0-6 5-10 10-10 6 0 10 4 10 10l0 32c17 5 33 11 49 17 6 2 8 8 6 13z m114-307l0 0c-5-3-7-9-4-14 3-5 9-6 14-3l1 0c4 3 6 9 3 14-3 5-9 6-14 3z m-95 305c2 0 3 1 4 1l1 0c5 3 7 8 5 14-3 5-8 7-14 5l0 0c-4-2-7-7-6-12 1-4 6-8 10-8z m268 19c-68 18-132 46-192 81-3 2-7 2-11 0-60-36-124-63-191-81-5-2-8-6-8-10l0-58-49 0c-5 0-9-5-9-9 0-5 4-10 9-10l49 0 0-26c0-3 0-6 0-9l-89 0c-5 0-9-4-9-9 0-5 4-10 9-10l90 0c1-11 3-23 5-35l-24 0c-5 0-9-4-9-9 0-5 4-9 9-9l29 0c3-12 7-24 11-36l-56 0c-3 0-7-1-8-4-2-3-2-7 0-10 1-3 5-4 8-4l65 0c15-31 35-58 59-82 44-43 96-67 115-67 18 0 70 24 114 67 59 57 91 135 90 217l0 103c0 4-3 8-7 9z m-13-113c1-76-29-150-84-203-44-42-90-61-100-61-11 0-57 19-101 61-54 53-85 127-84 203l0 95c65 18 127 45 185 78 58-33 119-59 184-78z m-64-130c-5 3-11 2-14-3-9-13-18-25-29-36-9-9-19-18-29-26-5-3-5-10-2-14 3-4 10-5 14-2 11 9 22 18 31 28 12 12 22 25 32 39 3 5 1 11-3 14z m-189 106c-13 13-34 13-47 0-12-13-12-33 0-46l60-60c13-13 34-13 46 0l125 125c13 12 13 33 0 46-13 13-34 13-47 0l-101-101z m152 51c3 3 7 4 12 3 4-1 8-4 9-9 1-4 0-9-4-12l-124-125c-5-4-13-4-18 0l-59 60c-5 5-5 13 0 18 5 5 13 5 18 0l43-44c4-4 10-4 14 0z m-359-144c-4 0-8-3-9-7-1-5 1-9 6-11 4-1 8 0 11 4 2 4 2 8-1 11-2 2-4 3-7 3z"/>
<glyph glyph-name="administrator" unicode="&#64;" d="M452 273c-18 9-50 9-52 9-4 0-7-4-7-8 0-4 3-7 7-7 15 0 31-2 45-7 2-2 5-2 8 0 2 1 3 4 3 7 0 2-2 5-4 6z m37-107l-31 9c-1 0-2 2-2 3l0 10c2 2 5 4 7 6 11 11 17 25 17 40l0 14 3 6c3 7 5 14 5 22l0 38c0 5-3 8-8 8l-72 0c-26 0-47-21-47-48l0 0c0-6 1-12 4-18l4-8 0-12c0-18 9-36 24-47l0-11c0-2 0-2-6-4l-16-4-43 16c0 2-1 4-2 5l-14 15 0 25c1 1 3 2 4 3 18 17 28 40 28 64l0 20c5 11 8 24 8 36l0 81c0 4-4 7-8 7l-112 0c-40 0-72-32-72-72l0-16c0-12 3-25 8-36l0-17c0-27 12-52 32-70l0-25-13-15c-2-1-3-3-3-6l-46-16c-3-2-6-3-9-5l-7 3c12 5 22 13 29 24 1 2 1 4 0 6-6 11-7 31-7 47 0 5 0 10-1 15 0 35-29 63-63 63-35 0-64-28-64-63 0-5 0-10-1-15 0-16-1-36-6-47-1-2-1-4 0-6 7-11 17-19 29-24l-21-10c-10-5-17-16-17-28l0-55c0-4 3-8 7-8 5 0 8 4 8 8l0 55c0 6 3 12 9 15l25 12 9-8c12-11 31-11 43 0l9 8 8-4c-4-6-6-13-6-21l0-57c0-4 4-8 8-8 4 0 7 4 7 8l0 57c0 11 7 20 16 24l49 17 20-30c3-4 7-7 12-7 0 0 1 0 1 0 4 0 8 2 11 4l13 13 0-78c0-4 3-8 7-8 4 0 8 4 8 8l0 78 12-13c3-2 7-4 11-4 0 0 1 0 1 0 5 0 9 3 12 7l20 30 49-17c9-4 16-13 16-24l0-57c0-4 3-8 7-8 5 0 8 4 8 8l0 57c0 11-4 21-11 28l2 0c2 1 4 2 7 3l19-19 0-69c0-4 3-8 7-8 4 0 8 4 8 8l0 69 19 19c1-1 2-1 3-1l31-9c7-2 12-9 12-16l0-62c0-4 3-8 7-8 5 0 8 4 8 8l0 62c0 14-9 26-23 30z m-441 13c-9 3-17 9-24 16 2 6 4 12 4 18 4-10 11-18 20-25z m43-20c-6-6-16-6-23 0l-7 7c2 2 2 5 2 7l0 8c11-3 22-3 33 0l0-8c0-2 1-5 2-7z m-11 35c-23 0-41 18-41 40 0 4-3 8-7 8-1 0-1 0-2 0l0 2c1 5 1 10 1 14 1 13 6 25 15 35 9 9 21 14 34 14 12 0 24-5 33-14 9-10 15-22 15-35 1-4 1-9 1-14l0-2c-9 13-22 23-37 27-9 3-19 5-29 5-2 0-3-1-5-3l-13-14c-3-3-3-7 0-10 3-3 8-3 11 0l11 12c9-1 41-4 53-31-3-20-20-34-40-34z m31-15l0 9c9 6 16 15 20 25 1-6 2-12 4-18-6-7-15-13-24-16z m72 122l0 19c0 1 0 2 0 3-5 10-8 21-8 32l0 16c0 31 26 56 57 56l105 0 0-72c0-11-3-22-7-32-1-1-1-2-1-3l0-22c0-20-8-39-23-53-2-1-4-3-6-5l0 0c-14-10-31-15-49-14-39 3-68 36-68 75z m43-151c0 0-1 0-1 0 0 0 0 0 0 0l-23 35 7 8 35-24z m30 29l-41 28 0 14c11-6 23-9 35-10 2 0 4 0 6 0 14 0 28 3 41 10l0-14z m31-29c0 0 0 0 0 0 0 0 0 0 0 0l-19 19 35 24 8-8z m137 7l-17 17c1 1 1 3 1 4l0 3c5-1 10-2 15-2 0 0 1 0 1 0 6 0 12 0 17 2l0-3c0-1 0-3 0-4z m29 48c-8-8-19-12-30-11-22 1-40 20-39 42l0 14c0 1-1 3-1 4l-5 9c-1 3-2 7-2 11l0 0c0 18 14 33 32 33l65 0 0-31c0-5-1-10-4-15l-3-7c-1-2-1-3-1-4l0-16c0-11-4-21-12-29z m19-76c-4 0-7-3-7-7l0-48c0-4 3-8 7-8 5 0 8 4 8 8l0 48c0 4-3 7-8 7z m-432-9c-5 0-8-4-8-8l0-38c0-4 3-8 8-8 4 0 7 4 7 8l0 38c0 4-3 7-7 8z m217 239c23-2 40-8 50-18 3-3 7-2 10 0 3 3 3 8 0 11-28 28-87 23-111 19-8-1-14-8-14-15l0-18c0-4 4-7 8-7 4 0 7 3 7 7l0 18c0 0 1 0 1 0 16 3 32 4 49 3z m-89-246c-4 0-8-3-8-7l0-32c0-4 4-8 8-8 4 0 7 4 7 8l0 32c0 4-3 7-7 7z m176 0c-4 0-7-3-7-7l0-32c0-4 3-8 7-8 4 0 8 4 8 8l0 32c0 4-4 7-8 7z"/>
<glyph glyph-name="upload-down" unicode="&#122;" d="M469 342c1 8 2 17 2 25 0 71-51 131-120 143-69 12-137-28-161-94-20 8-42 7-60-3-19-9-32-27-37-47-57-8-97-59-93-116 5-56 52-100 109-100l90 0c10 0 19 8 19 18 0 10-9 18-19 18l-90 0c-40 0-73 32-73 73 0 40 33 72 73 72 10 0 18 8 18 18 0 15 9 28 22 33 14 6 29 3 40-7 4-5 11-7 18-4 6 2 11 7 12 14 10 59 66 99 125 89 59-10 99-66 89-125 0-3-1-7-2-10-2-8 1-16 8-20 26-18 38-51 29-81-9-31-37-52-69-52l-55 0c-10 0-18-8-18-18 0-10 8-18 18-18l55 0c45 0 86 28 102 71 15 43 3 91-32 121z m-94-216c-7 7-18 7-25 0l-60-59 0 264c0 10-8 18-18 18-10 0-18-8-18-18l0-264-60 59c-7 7-18 7-25 0-7-7-7-18-1-25l91-91c7-7 19-7 26 0l90 91c7 7 7 18 0 25z"/>
<glyph glyph-name="recherse-report" unicode="&#91;" d="M489 316c11 0 21 10 21 22l0 125c0 12-10 22-21 22l-126 0c-12 0-22-10-22-22 0-11 10-21 22-21l61 0c2 0 4-1 5-3 0-2 0-5-2-6l-150-151c-1-1-3-1-4-1-1 0-3 0-4 1l-62 62c-8 8-22 8-30 0l-171-171c-8-8-8-21 1-30 8-8 21-8 30 0l151 152c1 1 3 1 4 1 2 0 3 0 4-1l62-62c8-9 22-9 30 0l170 169c1 1 2 2 4 2 0 0 1 0 2-1 2 0 3-2 3-5l0-60c0-12 10-22 22-22z m0-244l-467 0c-12 0-22-10-22-22 0-12 10-21 22-21l467 0c11 0 21 9 21 21 0 12-10 22-21 22z"/>
<glyph glyph-name="clock2" unicode="&#93;" d="M239 512c73 2 144-26 195-79 37-38 60-87 66-139 12-84-19-168-83-222-40-36-90-58-144-62-95-8-187 39-237 121-49 82-48 185 4 266 5 8 13 12 22 10 8-1 14-7 16-15 2-7 0-15-5-21-12-18-20-39-25-60-13-54-5-110 24-157 29-52 80-88 139-99 111-22 219 48 244 159 17 70-4 145-57 195-34 34-79 55-128 60-50 5-100-8-141-39-9-7-22-5-30 4-3 5-5 10-4 16 1 5 4 10 9 13 23 18 49 31 77 38 22 5 44 9 58 11z m33-231l33 0c17 0 35 0 52 0 11 0 19-9 20-19 1-11-7-21-18-22-3 0-5 0-8 0-32 0-63 0-95 0-18 0-25 7-26 25 0 33 0 66 0 99 0 5 1 11 5 15 3 4 8 7 14 8 6 1 12-1 16-5 5-5 7-10 7-17 0-24 0-49 0-74 0-3 0-6 0-10z"/>
<glyph glyph-name="diamond" unicode="&#94;" d="M510 349l-82 113c-2 3-5 5-9 5l-326 0c-4 0-7-2-9-5l-82-113c-3-4-3-11 1-15l245-270c2-3 5-4 8-4 4 0 7 1 9 4l244 271c4 4 4 10 1 14z m-32 5l-118 0 59 81z m-156-24l-66-218-66 218z m-125 24l59 81 59-81z m82 90l117 0-59-82z m-104-82l-59 81 117 0z m-9-32l64-212-192 212z m180 0l129 0-193-212z m-253 105l59-81-118 0z"/>
<glyph glyph-name="flash-card" unicode="&#95;" d="M293 199l-15 2-28 2c-9 1-17 2-26 2-2 0-3 1-4 2 0 2 1 3 2 4 17 19 35 37 53 56 7 7 14 14 21 21 1 2 3 3 5 2 8 0 16 0 23-1 4 0 9 0 13 0 1 0 3-1 4-2 0-2-1-3-2-4l-34-39c-3-3-5-6-8-9-1 0-1-1-2-2 2 0 4 0 6-1l33-2c8-1 16-2 23-3 2 0 4 0 4-2 1-2 0-3-2-4l-35-32-63-58c0-1 0-1-1-1-1-2-3-2-4-1-2 1-2 3-1 5 2 3 4 7 6 11 10 17 21 35 31 52 0 1 0 2 1 2z m-189-125l8 95-55 222c-4 14 5 28 18 31l226 57c14 3 28-5 31-19l11-45 35-3-14 56c-8 31-40 50-71 42l-226-56c-31-8-50-39-42-71l79-316c0 3 0 5 0 7z m290-83c-2 0-4 0-6 0l-231 20c-32 3-56 31-53 63l26 301c3 32 31 56 63 53l232-20c32-3 56-31 53-63l-27-301c-2-30-27-53-57-53z m-206 405c-13 0-24-10-25-23l-27-302c-1-14 9-26 23-27l232-21c14-1 27 9 28 24l26 301c2 14-9 26-23 28l-232 20c0 0-1 0-2 0z"/>
<glyph glyph-name="download" unicode="&#96;" d="M276 235l49 44c20 17 39 34 58 51 6 6 15 8 24 6 9-2 16-8 18-17 3-9 0-19-7-25-16-15-32-29-48-43l-100-89c-5-5-12-8-19-8-8 0-15 3-19 8-49 43-97 86-145 128-6 5-10 11-11 19-2 10 3 20 12 25 9 5 21 4 29-3 12-11 25-22 37-33l67-59c1-1 2-2 4-4 0 3 0 5 0 7 0 80 0 160 1 240 0 6 1 13 4 18 5 10 16 14 27 11 10-2 17-11 18-21 1-3 1-5 1-7 0-80 0-160 0-240z m175-172c0 16 0 32 0 48-1 7 2 15 8 20 6 5 13 7 21 6 11-2 19-10 21-22 0-9 0-19 0-29 0-15 0-30 0-45 1-8-1-16-7-22-6-6-14-8-22-7l-333 0c-37 0-74 0-111 0-8-1-16 2-21 9-4 4-6 10-6 16-1 25-1 50-1 75 0 13 9 23 22 25 12 2 23-5 27-17 1-4 1-8 1-12 0-15 0-30 0-45z"/>
<glyph glyph-name="true-tick-with-circle2" unicode="&#47;" d="M388 344c-3 3-8 5-13 5-5 0-9-2-12-5l-134-138-59 60c-3 3-8 5-12 5-5 0-10-2-13-5-7-7-7-19 0-26l69-71c0-1 1-2 2-3 3-3 8-5 13-5 5 0 9 2 13 5 1 1 1 2 2 3l144 148c7 8 7 19 0 27z m-132-344c-141 0-256 115-256 256 0 141 115 256 256 256 68 0 133-27 181-75 48-48 75-113 75-181 0-68-27-133-75-181-48-48-113-75-181-75z m0 489c-128 0-233-105-233-233 0-128 105-233 233-233 129 0 233 105 233 233 0 128-104 233-233 233z"/>
<glyph glyph-name="edit-border" unicode="&#123;" d="M525 250l-2 3c-5 8-15 11-24 9-10-3-16-12-16-22 0-4 0-7 0-10l0-3c0-14 0-29 0-43l0-5c0-34 0-72 0-109 1-10-2-21-9-29-8-7-18-11-29-10-130 0-262 0-363 0-4 0-9 0-13 1-17 5-28 22-25 40 0 127 0 255 0 353-1 11 3 23 10 32 8 7 20 11 31 10 50 0 104 0 169 0 7 0 14 2 20 7 3 4 5 10 5 16 0 6-2 12-7 16-5 5-11 7-18 6l-27 0c-49 0-100 0-149 0-33-1-62-22-73-53-1-4-2-7-3-10l0-1-2-4 0-1 0-390 0-1 1-3c1-2 2-4 2-6 10-34 41-58 76-58l369 0c36 0 67 24 76 59 0 2 1 3 2 5l0 0 0 3 1 1 0 194z m-393-30c-3-3-4-7-5-11 0-29 0-58 0-87 0-6 2-8 8-8 29 0 57 0 86 0 5 0 9 2 13 5 91 92 182 183 274 274 5 4 8 10 8 17 0 6-3 12-8 16-23 22-45 44-67 67-5 3-9 6-14 9l-9 0c-6-4-12-8-17-13-90-90-180-179-269-269z m290 223l33-34c-1-1-2-3-3-4l-22-21-33 33c8 9 16 17 25 26z m-21-89c-61-61-123-123-185-184-3-3-7-5-11-5-8 0-17 0-27 0 0 11 0 21 0 31 1 3 2 5 4 7 62 62 124 123 185 185z"/>
<glyph glyph-name="thumb2" unicode="&#124;" d="M488 167c10 12 15 27 14 42 0 14-5 26-13 37 10 22 4 48-14 65-17 15-45 22-85 20-17 0-35-3-52-6l0 0c-6-1-11-2-17-4 1 21 5 42 13 62 15 45 14 80-2 103-13 17-33 26-54 26-8 0-16-3-21-9-9-16-12-34-9-51-14-37-53-130-86-155-1-1-1-1-2-2-9-9-16-19-21-31-6 4-13 6-21 6l-64 0c-25 0-45-20-45-45l0-172c0-24 20-44 45-44l64 0c9 0 18 3 26 8l25-3c47-6 94-8 141-8 13-1 25-1 36-1 16 0 33 1 49 4 27 4 51 19 66 41 6 13 9 27 7 41 16 13 25 34 24 55 0 7-2 14-4 21z m-434-129c-9 0-16 7-16 15l0 173c0 8 7 15 16 15l64 0c9 0 16-7 16-15l0-173c0-8-7-15-16-15l-64 0z m407 142c-5-5-6-12-2-18 2-5 4-11 5-17 0-15-8-29-20-37-5-4-7-11-5-16 2-10 1-19-3-28-11-15-28-25-47-27-26-4-52-5-77-2l-2 0c-46-1-92 2-138 8l0 0-11 1c1 3 1 6 1 9l0 173c0 4 0 8-2 13 4 13 11 26 20 36 48 38 94 165 96 171 1 2 1 4 1 7-2 10-2 21 1 31 12 0 23-6 30-15 11-15 11-41-1-77-18-54-19-82-5-95 6-5 15-7 23-4 6 2 13 3 18 4l2 0c32 7 91 12 111-7 10-10 12-26 4-39-4-5-3-13 2-18 7-7 11-15 12-25 0-11-5-21-13-28z"/>
<glyph glyph-name="cross" unicode="&#103;" d="M491 68c12-13 12-34 0-47-9-4-17-8-22-8-8 0-17 4-21 8l-192 188-188-188c-13-12-34-12-47 0-4 9-8 17-8 22 0 8 4 17 8 21l188 192-188 188c-12 13-12 34 0 47 13 12 34 12 47 0l188-188 188 188c13 12 34 12 47 0 12-13 12-34 0-47l-188-188z"/>
<glyph glyph-name="quiz" unicode="&#125;" d="M66 45l0 398c1 1 1 1 1 2 3 15 12 27 26 34 12 4 25 5 38 3 0-7 0-13 0-20 0-10 4-20 12-27 7-8 17-12 28-12 58 0 117 0 175 0 11 0 21 5 29 12 7 8 11 18 11 29 0 6 0 12 0 18 9 1 17 1 26 0 22-3 38-22 38-45 0-127 0-254 0-381 0-1 0-3 0-4-1-12-5-23-14-31-8-8-20-13-32-13-98 0-196 0-294 0-17 0-34 11-40 28-2 3-3 6-4 9z m250 93c-17 0-35 0-52 0-5 1-10-2-13-7-3-4-3-10 0-15 2-5 8-7 13-7 34 0 69 0 103 0 4 0 8 2 11 4 4 4 6 10 4 15-2 7-8 10-15 10-17 0-34 0-51 0z m-1 167c17 0 35 0 52 0 5 0 10 3 13 8 3 4 3 10 0 15-3 4-8 7-13 7-34 0-69 0-103 0-3 0-6-1-9-3-6-4-8-10-6-16 2-7 9-11 15-10 17-1 34-1 51-1z m1-68c-17 0-35 0-52 0-8 0-15-6-16-15 0-4 2-8 5-10 3-3 6-5 10-5 35 0 70 0 104 0 5 0 9 2 11 5 3 3 5 7 4 11-1 8-7 14-15 14-17 0-34 0-51 0z m-150 89c-3 3-5 6-8 9-6 5-14 5-20 0-3-3-4-6-5-10 0-4 1-7 4-10 6-7 13-14 21-21 5-5 13-5 18 1 15 15 31 30 46 45 3 4 4 10 3 14-2 5-6 9-11 10-5 1-11-1-15-5-11-11-22-21-33-33z m0-106c-3 3-5 5-7 8-4 4-9 6-14 4-6-1-10-5-11-10-1-6 0-11 4-15 6-5 11-11 17-16 3-4 7-6 12-6 4 0 9 2 11 6 10 9 20 19 30 29 4 5 9 9 13 14 3 3 5 7 4 10 0 4-1 8-4 11-6 5-15 5-21-1-2-2-4-5-7-7z m0-98c-3 3-5 6-8 8-6 5-15 5-20 0-5-6-5-15 0-21 6-6 12-12 18-18 3-3 6-4 10-4 4 0 8 1 11 4 15 15 30 30 44 45 3 3 4 7 4 12 0 5-4 10-9 12-6 2-12 0-16-4z m184 390c5-3 7-8 7-14-1-11 0-22-1-34 0-8-3-11-11-11l-173 0c-8 0-12 4-12 12 0 11 0 22 0 33-1 6 2 11 7 14z"/>
<glyph glyph-name="microsoft" unicode="&#126;" d="M15 69l187-27 0 198-187 0z m0 203l187 0 0 195-187-29z m219 200l0-200 248 0 0 240z m0-435l248-37 0 240-248 0z"/>
<glyph glyph-name="uipath" unicode="&#92;" d="M111 9c-15 3-28 9-39 19-13 12-21 30-22 48 0 21 0 43 0 64l0 19-12 0 0-5c0-8 0-16 0-24 0-6-1-11-5-14-4-4-9-6-14-6-5 0-10 2-14 6-3 3-5 8-5 13 0 33 0 67 0 100 0 5 2 10 6 14 3 3 8 5 13 5 6 0 11-2 15-6 3-4 5-9 4-14l0-29 12 0 0 26c0 18 0 36 0 54 0 34 24 63 58 68 4 1 8 1 13 1l117 0 0 19c0 7 0 14 0 21-25 9-41 34-38 61 4 28 27 49 54 50 28 1 53-18 58-45 6-27-8-55-34-65l0 0-2-3c0-9 0-19 0-29l0-9 118 0c2 0 3 0 4 0 39-2 68-35 65-73l0-77 12 0 0 26c0 3 0 6 0 9 2 7 8 13 15 15 1 0 2 0 4 0 9 0 16-6 18-15 1-2 1-4 1-6l0-96c1-5-1-11-5-15-3-4-8-6-14-6-2 0-4 0-6 1-9 3-14 11-13 21l0 27-12 0 0-25c0-17 0-35 0-52 2-35-23-66-58-72l-1-1-293 0z m280 39l5-7 0 7c17 1 30 16 29 33l0 195c0 2 0 4 0 5-1 16-15 29-31 29l-3 0-274 0c-17-2-30-17-29-34l0-195c0-1 0-3 0-5 2-16 15-28 31-28l3 0z m-134 412c-11 0-19-8-19-18 0-10 8-19 19-19 10 0 18 9 18 19 0 10-8 18-18 18l0 7z m-62-376c-9 0-16 6-19 14-3 8 0 16 7 21 4 2 9 4 14 4l120 0c6 0 12-2 16-6 4-4 6-9 5-14 0-5-2-10-6-14-4-4-10-5-15-5l-121 0z m-13 75c-32 0-57 26-57 57 0 32 25 57 57 57 31 0 56-25 56-57 0-31-25-57-56-57z m0 76c-10-1-18-9-18-19 0-10 8-18 18-18l0-4 0 4c10 0 18 8 18 18 0 10-8 18-18 19z m150-76c-32 0-57 26-57 57 0 31 25 57 57 57 31 0 56-25 56-57 0-31-25-57-56-57z m0 76c-10 0-19-9-19-19 0-10 9-18 19-18 10 0 18 8 18 18 0 10-8 18-18 19z"/>
<glyph glyph-name="soft-test" unicode="&#57344;" d="M483 255c0 30-6 59-17 87 8 8 17 16 26 24l-20 35c-12-3-23-7-35-10-36 47-90 78-149 86-2 12-5 23-8 35l-41 0c-3-12-5-23-8-35-59-8-113-39-149-86-12 3-23 7-35 10l-20-35c9-8 18-16 26-24-23-56-23-118 0-173-8-8-17-16-26-24l20-36c12 4 23 7 35 11 36-48 90-79 149-86 3-12 6-24 8-35l41 0c3 11 5 23 8 35 59 7 113 38 149 86 12-4 23-7 35-11l20 36c-9 8-17 16-26 24 11 27 17 57 17 86z m-206-188c-3-1-6-1-9-1-3 0-6 0-8 0-3 0-7 0-10 0-3 0-5 0-8 1-4 0-7 1-11 1l0 104-9 5c-23 12-39 34-42 59-4 26 5 52 23 70l0-30c0-16 13-29 29-29l55 0c16 0 29 13 29 29l0 30c18-18 27-44 23-69-3-26-19-48-42-60l-9-5 0-104c-4 0-8-1-11-1z m161 124c-4-10-9-20-14-30-1 0-1-1-1-2-6-9-12-17-19-26-21-25-50-45-82-56l0 75c34 22 54 60 52 101-1 40-24 77-60 96-7 4-15 4-21 0-7-4-11-11-11-19l0-49-45 0 0 49c0 8-4 15-11 19-7 4-15 4-22 0-35-19-58-56-59-96-2-40 18-79 51-101l0-75c-31 11-60 31-82 56-6 9-13 17-18 27 0 0-1 1-1 1-5 10-10 20-14 30-15 42-15 87 0 129 4 10 9 20 14 30 0 0 1 1 1 1 5 10 12 18 18 27 29 33 68 56 112 64 5 1 11 2 16 2 4 1 8 1 13 1 1 0 3 0 4 0 2 0 3 0 4 0 5 0 9 0 14-1 5 0 10-1 15-2 44-8 84-31 112-65 7-8 13-16 18-26 1 0 1-1 2-1 5-10 10-20 13-30 16-42 16-87 0-129z"/>
<glyph glyph-name="python-nav" unicode="&#57345;" d="M476 346c-14 18-35 28-58 29l-46 0 0 56c0 21-10 42-28 55-28 19-61 28-94 26-34 2-67-7-95-27-17-13-27-33-28-54l0-56-45 0c-23-1-45-11-58-29-17-24-26-54-24-84-2-29 7-59 24-83 13-18 35-29 58-29l45 0 0-56c1-21 11-42 28-55 28-19 61-28 95-26 33-2 67 7 94 26 17 13 28 34 28 55l0 56 46 0c23 0 44 11 58 29 17 24 25 54 23 83 2 30-6 60-23 84z m-344-103c-2-3-3-7-4-11-1-4-1-8-1-12l0-36-45 0c-13 0-24 6-31 16-13 18-19 40-17 62-2 23 4 45 17 63 7 10 18 16 31 15l185 0 0 35-106 0 0 56c0 11 6 21 15 28 22 14 48 21 74 19 25 2 51-4 73-19 9-6 15-17 15-28l0-126c0-14-11-26-25-26l-127 0c-24 0-45-14-54-36z m317-43c-7-10-19-16-31-16l-185 0 0-34 105 0 0-56c0-11-6-22-15-28-22-15-47-21-73-19-26-2-52 4-74 19-9 6-15 17-15 28l0 126c0 2 0 3 0 5 3 12 13 20 25 21l127 0c33 0 59 26 59 59l0 35 46 0c12 1 24-5 31-15 12-19 18-41 16-63 2-22-4-44-16-62z m-252 253c-12 0-21-10-21-21 0-12 9-22 21-22 11 0 21 10 21 22 0 11-10 21-21 21z m105-381c12 0 22 10 22 21 0 12-10 21-21 21-12 0-22-9-22-21 0-11 10-21 21-21z"/>
<glyph glyph-name="thumb-dilike-filled" unicode="&#57346;" d="M37 171c-20 0-37 16-37 37l0 245c0 21 17 38 37 38 20-4 91 15 91-38l0-245c0-53-72-34-91-37z m390 16l-101 0c11-27 17-56 16-86 4-42-27-80-69-85-22 0-32 11-32 64 0 51-49 91-81 112l0 265c106 49 227 37 243 39 107 0 85-139 108-210 4-24-3-50-19-69-16-19-40-30-65-30z"/>
<glyph glyph-name="dis-likes" unicode="&#57347;" d="M327 169l53 0c27 0 54 0 81 0 13-1 26 4 36 14 10 9 15 22 15 36 1 23-4 47-14 68-23 51-45 102-68 153-10 25-35 41-61 40-50 0-100 0-150 0-22 0-43-8-58-24-9-9-17-17-25-25-4-4-6-9-6-14 0-62 0-124 0-185 0-5 2-9 5-13 42-42 80-89 113-140 8-13 17-25 26-37 9-17 29-26 47-22 19 4 34 19 38 38 4 13 3 26-3 39-9 22-18 44-27 66 0 2-1 3-2 6z m-238 163c0 29 0 57 0 86 0 18-12 34-29 41-17 6-37 1-49-13-8-9-11-20-11-32 0-45 0-90 0-135 0-10 0-21 0-32 0-23 18-41 41-43 23-2 43 13 47 36 1 4 1 8 1 12 0 27 0 53 0 80z"/>
<glyph glyph-name="likes" unicode="&#57348;" d="M327 330l53 0c27 0 54 0 81 0 13 1 26-5 36-14 10-9 15-22 15-36 1-23-4-47-14-68-23-51-45-102-68-153-10-25-35-41-61-40-50 0-100 0-150 0-22-1-43 8-58 24-9 9-17 17-25 25-4 4-6 9-6 14 0 62 0 124 0 185 0 5 2 9 5 13 42 42 80 89 113 140 9 12 18 25 26 37 9 17 29 26 48 22 18-4 33-19 37-38 4-13 3-26-3-39-9-22-18-44-27-66 0-2-1-3-2-6z m-238-163c0-29 0-57 0-86 0-18-12-34-29-41-17-6-37-1-49 13-8 9-11 20-11 32 0 45 0 89 0 135 0 10 0 21 0 32 0 22 18 41 41 43 23 2 43-13 47-36 1-4 1-8 1-12 0-27 0-53 0-80z"/>
<glyph glyph-name="challenges" unicode="&#57349;" d="M499 162l-35 43-93 115c-3 4-7 7-13 7-5 0-10-3-13-7-4-5-8-11-13-16l-40-50-3 4c-1 1-2 2-3 3l-26 35c-20 27-41 54-61 81-3 4-7 7-13 7-5 0-9-3-12-7l-79-106-91-120c-4-5-5-12-2-18 2-5 8-8 14-8l1 0c13 0 27 0 40 0l170 0c90 0 179 0 268 0 6 0 12 3 15 9 3 5 2 12-2 17-3 3-6 7-9 11z m-454-7l142 189 2-2 141-187z m393 0c-21 0-41 0-61 0l0 0c-7 0-13 3-17 9-12 15-23 31-35 46-4 6-9 12-13 18l-1 1 48 60 108-134z"/>
<glyph glyph-name="youtube" unicode="&#57350;" d="M512 354c0 40-34 73-76 73l-360 0c-42 0-76-33-76-73l0-196c0-40 34-73 76-73l359 0c43 0 77 33 77 73l0 196z m-307-180l0 183 146-92z"/>
<glyph glyph-name="sand-box-fill" unicode="&#57351;" d="M28 74c-15 0-28 13-28 28l0 160c0 4 1 7 2 9l113 175c3 4 7 6 11 6l267 0c4 0 8-3 11-6l108-175c1-3 2-6 2-9l0-160c0-15-13-28-29-28z m137 203c7 0 14-2 19-7l39-35c1 0 1 0 2 0l69 0c0 0 1 0 1 0l38 35c5 5 12 7 19 7l125 0-92 149-251 0-97-149z"/>
<glyph glyph-name="sand-box" unicode="&#57352;" d="M28 76c-16 0-28 12-28 28l0 156c0 3 1 6 2 9l111 170c2 4 6 6 10 6l261 0c4 0 8-2 10-6l106-170c1-3 2-6 2-9l0-156c0-16-13-28-28-28z m0 173c-1 0-2-1-2-2l0-143c0-1 1-2 2-2l446 0c1 0 2 1 2 2l0 143c0 1-1 2-2 2l-130 0c-1 0-1 0-1 0l-38-34c-5-5-11-8-18-8l-67 0c-7 0-14 3-19 7l-38 35c-1 0-1 0-2 0z m133 26c7 0 14-3 19-7l38-34c1-1 1-1 2-1l67 0c0 0 1 0 1 1l37 34c5 4 12 7 19 7l122 0-90 145-246 0-94-145z"/>
<glyph glyph-name="android-done" unicode="&#57353;" d="M186 172l-90 91-32-31 122-122 262 261-32 31z"/>
<glyph glyph-name="x-twitter" unicode="&#57354;" d="M61 451l150-219-147-171 32 0 129 150 103-150 123 0-157 229 138 161-32 0-121-140-95 140z m39-21l73 0 239-348-74 0z"/>
</font>
</defs>
</svg>
